×

¿Problemas para descargar con Mozilla, EDGE? Deshabilita la opción "Abrir vinculos en una pestaña nueva" tal como lo muestra ésta imagen.

Madagascar (2005-2012) Colección REMUX 1080p Latino – CMHDD

38 vistas

Información de Madagascar (2005-2012) Colección REMUX 1080p Latino – CMHDD

Datos de la película

  • Calidad: Full 1080p
  • Audio: Español Latino AC3 5.1 BLURAY - Ingles DTS 5.1 BLURAY
  • Subtitulos: Español Latino SRT- FORZADOS SRT
  • Resolución: 19201080p
  • Formato: MKV
  • Codec: H.264
  • Encoder: Dracarys
  • Mediainfo: Clic para Mostrar Datos Ver
  • Format                      : Matroska
    Format version              : Version 4
    File size                   : 22.7 GiB
    Duration                    : 1 h 33 min
    Overall bit rate mode       : Variable
    Overall bit rate            : 34.8 Mb/s
    Movie name                  : Madagascar 3 (2012) REMUX 1080p Latino - CMHDD
    Encoded date                : UTC 2024-03-18 19:56:25
    Writing application         : mkvmerge v47.0.0 ('Black Flag') 64-bit
    Writing library             : libebml v1.3.10 + libmatroska v1.5.2

    Video
    ID                          : 1
    ID in the original source m : 4113 (0x1011)
    Format                      : AVC
    Format/Info                 : Advanced Video Codec
    Format profile              : High@L4.1
    Format settings             : CABAC / 4 Ref Frames
    Format settings, CABAC      : Yes
    Format settings, Reference  : 4 frames
    Codec ID                    : V_MPEG4/ISO/AVC
    Duration                    : 1 h 33 min
    Bit rate mode               : Variable
    Bit rate                    : 28.8 Mb/s
    Maximum bit rate            : 31.4 Mb/s
    Width                       : 1 920 pixels
    Height                      : 1 080 pixels
    Display aspect ratio        : 16:9
    Frame rate mode             : Constant
    Frame rate                  : 23.976 (24000/1001) FPS
    Color space                 : YUV
    Chroma subsampling          : 4:2:0
    Bit depth                   : 8 bits
    Scan type                   : Progressive
    Bits/(Pixel*Frame)          : 0.579
    Stream size                 : 18.8 GiB (83%)
    Language                    : English
    Default                     : No
    Forced                      : No
    Original source medium      : Blu-ray

    Audio #1
    ID                          : 2
    ID in the original source m : 4354 (0x1102)
    Format                      : AC-3
    Format/Info                 : Audio Coding 3
    Commercial name             : Dolby Digital
    Codec ID                    : A_AC3
    Duration                    : 1 h 33 min
    Bit rate mode               : Constant
    Bit rate                    : 640 kb/s
    Channel(s)                  : 6 channels
    Channel layout              : L R C LFE Ls Rs
    Sampling rate               : 48.0 kHz
    Frame rate                  : 31.250 FPS (1536 SPF)
    Compression mode            : Lossy
    Stream size                 : 428 MiB (2%)
    Language                    : Spanish
    Service kind                : Complete Main
    Default                     : Yes
    Forced                      : Yes
    Original source medium      : Blu-ray

    Audio #2
    ID                          : 3
    ID in the original source m : 4352 (0x1100)
    Format                      : AC-3
    Format/Info                 : Audio Coding 3
    Commercial name             : Dolby Digital
    Codec ID                    : A_AC3
    Duration                    : 1 h 33 min
    Bit rate mode               : Constant
    Bit rate                    : 640 kb/s
    Channel(s)                  : 6 channels
    Channel layout              : L R C LFE Ls Rs
    Sampling rate               : 48.0 kHz
    Frame rate                  : 31.250 FPS (1536 SPF)
    Compression mode            : Lossy
    Stream size                 : 428 MiB (2%)
    Language                    : English
    Service kind                : Complete Main
    Default                     : No
    Forced                      : No
    Original source medium      : Blu-ray

    Audio #3
    ID                          : 4
    ID in the original source m : 4352 (0x1100)
    Format                      : MLP FBA
    Format/Info                 : Meridian Lossless Packing FBA
    Commercial name             : Dolby TrueHD
    Codec ID                    : A_TRUEHD
    Duration                    : 1 h 33 min
    Bit rate mode               : Variable
    Bit rate                    : 4 573 kb/s
    Maximum bit rate            : 5 997 kb/s
    Channel(s)                  : 8 channels
    Channel layout              : L R C LFE Ls Rs Lb Rb
    Sampling rate               : 48.0 kHz
    Frame rate                  : 1 200.000 FPS (40 SPF)
    Compression mode            : Lossless
    Stream size                 : 2.98 GiB (13%)
    Language                    : English
    Default                     : No
    Forced                      : No
    Original source medium      : Blu-ray

    Text #1
    ID                          : 5
    Format                      : UTF-8
    Codec ID                    : S_TEXT/UTF8
    Codec ID/Info               : UTF-8 Plain Text
    Duration                    : 1 h 22 min
    Bit rate                    : 0 b/s
    Frame rate                  : 0.006 FPS
    Count of elements           : 28
    Stream size                 : 520 Bytes (0%)
    Title                       : Forzados SRT
    Language                    : Spanish
    Default                     : Yes
    Forced                      : Yes

    Text #2
    ID                          : 6
    Format                      : UTF-8
    Codec ID                    : S_TEXT/UTF8
    Codec ID/Info               : UTF-8 Plain Text
    Duration                    : 1 h 22 min
    Bit rate                    : 57 b/s
    Frame rate                  : 0.231 FPS
    Count of elements           : 1143
    Stream size                 : 34.9 KiB (0%)
    Title                       : Completos SRT
    Language                    : Spanish
    Default                     : No
    Forced                      : No

    Text #3
    ID                          : 7
    ID in the original source m : 4617 (0x1209)
    Format                      : PGS
    Muxing mode                 : zlib
    Codec ID                    : S_HDMV/PGS
    Codec ID/Info               : Picture based subtitle format used on BDs/HD-DVDs
    Duration                    : 1 h 23 min
    Bit rate                    : 73.5 kb/s
    Frame rate                  : 0.472 FPS
    Count of elements           : 2366
    Stream size                 : 43.9 MiB (0%)
    Title                       : Forzados PGS
    Language                    : Spanish
    Default                     : No
    Forced                      : Yes
    Original source medium      : Blu-ray

    Text #4
    ID                          : 8
    ID in the original source m : 4611 (0x1203)
    Format                      : PGS
    Muxing mode                 : zlib
    Codec ID                    : S_HDMV/PGS
    Codec ID/Info               : Picture based subtitle format used on BDs/HD-DVDs
    Duration                    : 1 h 22 min
    Bit rate                    : 47.7 kb/s
    Frame rate                  : 0.463 FPS
    Count of elements           : 2282
    Stream size                 : 28.0 MiB (0%)
    Title                       : Completos PGS
    Language                    : Spanish
    Default                     : No
    Forced                      : No
    Original source medium      : Blu-ray

    Menu
    00:00:00.000                : en:Chapter 01
    00:05:16.316                : en:Chapter 02
    00:10:51.984                : en:Chapter 03
    00:19:46.310                : en:Chapter 04
    00:27:49.834                : en:Chapter 05
    00:32:50.551                : en:Chapter 06
    00:40:34.974                : en:Chapter 07
    00:46:51.975                : en:Chapter 08
    00:52:00.534                : en:Chapter 09
    00:58:55.156                : en:Chapter 10
    01:00:23.411                : en:Chapter 11
    01:04:19.313                : en:Chapter 12
    01:10:59.672                : en:Chapter 13
    01:15:30.734                : en:Chapter 14
    01:21:09.781                : en:Chapter 15
    01:22:48.630                : en:Chapter 16

     

  • Peso: 66.2 GiB

Sinopsis

Cuenta la historia de cuatro divertidos animales del zoo de Central Park, Nueva York, (Alex el león, Marty la cebra, Gloria la hipopótamo y Melman la jirafa). Llevan toda su vida encerrados en cautividad sin poder experiemtnar el sabor de la libertad y se han propuesto idear un plan para salir de allí juntos. Un día, una serie de casualidades les llevan a lograr lo que tanto ansiaban y huyen de aquel lugar. Terminan en plena naturaleza, concretamente en la idílica isla de Madagascar. Allí descubrirán, a base de apasionantes aventuras, que la vida salvaje es muy diferente a lo que ellos pensaban y que vivir en libertad no es tan fácil como imaginaban.

Ficha técnica

Video trailer de la película

Enlaces de descarga

Rip de Bluray

Descargar Madagascar (2005-2012) Colección REMUX 1080p Latino – CMHDD




Aportes de DPeliculasHDmega la pass es:dpeliculashdmega.org Aportes de CinemaniaHD la pass es:cinemaniahdd.com Aportes recientes:cinemaniahdd.net
Guardado en : Animación , Aventura , Comedia , Familia

Películas relacionadas

descargar Madagascar (2005-2012) Colección REMUX 1080p Latino – CMHDD Full 1080p 1080p gratis, Madagascar (2005-2012) Colección REMUX 1080p Latino – CMHDD Full 1080p mega 1 link, Madagascar (2005-2012) Colección REMUX 1080p Latino – CMHDD Full 1080p pelicula completa, descargar Madagascar (2005-2012) Colección REMUX 1080p Latino – CMHDD Full 1080p gratis en mega.

Madagascar (2005-2012) Colección REMUX 1080p Latino – CMHDD pelicula full hd, Madagascar (2005-2012) Colección REMUX 1080p Latino – CMHDD mega latino, Madagascar (2005-2012) Colección REMUX 1080p Latino – CMHDD 4k latino, Madagascar (2005-2012) Colección REMUX 1080p Latino – CMHDD pelicula completa, Madagascar (2005-2012) Colección REMUX 1080p Latino – CMHDD descargar gratis, descargar Madagascar (2005-2012) Colección REMUX 1080p Latino – CMHDD pelicula latino, Madagascar (2005-2012) Colección REMUX 1080p Latino – CMHDD 1 link mega, Madagascar (2005-2012) Colección REMUX 1080p Latino – CMHDD 1 link google drive, Madagascar (2005-2012) Colección REMUX 1080p Latino – CMHDD hd 1080p latino.
Comentarios 0