×

¿Problemas para descargar con Mozilla, EDGE? Deshabilita la opción "Abrir vinculos en una pestaña nueva" tal como lo muestra ésta imagen.

VHS Viral (2014) AMZN WEB-DL 1080p Castellano

2.696 vistas

Información de VHS Viral (2014) AMZN WEB-DL 1080p Castellano

Datos de la película

  • Calidad: WEBDL
  • Audio: Se especifica abajo de la Sinopsis
  • Subtitulos: Español España SRT - Ingles SRT
  • Resolución: 1920x1080
  • Formato: MKV
  • Codec: H.264
  • Encoder: cinemaniahdd
  • Mediainfo: Clic para Mostrar Datos Ver
  • VHS Viral (2014) AMZN WEB-DL 1080p Castellano [CNMNHDD].mkv
    Format                      : Matroska
    Format version              : Version 4
    File size                   : 7.90 GiB
    Duration                    : 1 h 21 min
    Overall bit rate            : 13.9 Mb/s
    Movie name                  : VHS Viral (2014) [1080p] - CinemaniaHDD.Net
    Encoded date                : UTC 2024-01-03 23:20:53
    Writing application         : mkvmerge v56.1.0 ('My Friend') 64-bit
    Writing library             : libebml v1.4.2 + libmatroska v1.6.4

    Video
    ID                          : 1
    Format                      : AVC
    Format/Info                 : Advanced Video Codec
    Format profile              : High@L4
    Format settings             : CABAC / 4 Ref Frames
    Format settings, CABAC      : Yes
    Format settings, Reference  : 4 frames
    Codec ID                    : V_MPEG4/ISO/AVC
    Duration                    : 1 h 21 min
    Bit rate                    : 12.7 Mb/s
    Width                       : 1 920 pixels
    Height                      : 1 080 pixels
    Display aspect ratio        : 16:9
    Frame rate mode             : Constant
    Frame rate                  : 23.976 (24000/1001) FPS
    Color space                 : YUV
    Chroma subsampling          : 4:2:0
    Bit depth                   : 8 bits
    Scan type                   : Progressive
    Bits/(Pixel*Frame)          : 0.254
    Stream size                 : 7.19 GiB (91%)
    Title                       : CinemaniaHDD
    Default                     : Yes
    Forced                      : No
    Color range                 : Limited
    Color primaries             : BT.709
    Transfer characteristics    : BT.709
    Matrix coefficients         : BT.709

    Audio #1
    ID                          : 2
    Format                      : AC-3
    Format/Info                 : Audio Coding 3
    Commercial name             : Dolby Digital
    Codec ID                    : A_AC3
    Duration                    : 1 h 21 min
    Bit rate mode               : Constant
    Bit rate                    : 384 kb/s
    Channel(s)                  : 2 channels
    Channel layout              : L R
    Sampling rate               : 48.0 kHz
    Frame rate                  : 31.250 FPS (1536 SPF)
    Compression mode            : Lossy
    Stream size                 : 223 MiB (3%)
    Title                       : Español Castellano [CinemaniaHDD]
    Language                    : Spanish
    Service kind                : Complete Main
    Default                     : Yes
    Forced                      : No

    Audio #2
    ID                          : 3
    Format                      : E-AC-3
    Format/Info                 : Enhanced AC-3
    Commercial name             : Dolby Digital Plus
    Codec ID                    : A_EAC3
    Duration                    : 1 h 21 min
    Bit rate mode               : Constant
    Bit rate                    : 224 kb/s
    Channel(s)                  : 2 channels
    Channel layout              : L R
    Sampling rate               : 48.0 kHz
    Frame rate                  : 31.250 FPS (1536 SPF)
    Compression mode            : Lossy
    Stream size                 : 130 MiB (2%)
    Title                       : Español Castellano / E-AC3 [CinemaniaHDD]
    Language                    : Spanish
    Service kind                : Complete Main
    Default                     : No
    Forced                      : No

    Audio #3
    ID                          : 4
    Format                      : E-AC-3
    Format/Info                 : Enhanced AC-3
    Commercial name             : Dolby Digital Plus
    Codec ID                    : A_EAC3
    Duration                    : 1 h 21 min
    Bit rate mode               : Constant
    Bit rate                    : 640 kb/s
    Channel(s)                  : 6 channels
    Channel layout              : L R C LFE Ls Rs
    Sampling rate               : 48.0 kHz
    Frame rate                  : 31.250 FPS (1536 SPF)
    Compression mode            : Lossy
    Stream size                 : 372 MiB (5%)
    Title                       : Inglés [CinemaniaHDD]
    Language                    : English
    Service kind                : Complete Main
    Default                     : No
    Forced                      : No

    Text #1
    ID                          : 5
    Format                      : UTF-8
    Codec ID                    : S_TEXT/UTF8
    Codec ID/Info               : UTF-8 Plain Text
    Duration                    : 10 min 27 s
    Bit rate                    : 0 b/s
    Count of elements           : 2
    Stream size                 : 55.0 Bytes (0%)
    Title                       : Forzados [CinemaniaHDD]
    Language                    : Spanish
    Default                     : Yes
    Forced                      : Yes

    Text #2
    ID                          : 6
    Format                      : UTF-8
    Codec ID                    : S_TEXT/UTF8
    Codec ID/Info               : UTF-8 Plain Text
    Duration                    : 1 h 15 min
    Bit rate                    : 42 b/s
    Count of elements           : 668
    Stream size                 : 23.5 KiB (0%)
    Title                       : Español Castellano [CinemaniaHDD]
    Language                    : Spanish
    Default                     : No
    Forced                      : No

    Text #3
    ID                          : 7
    Format                      : UTF-8
    Codec ID                    : S_TEXT/UTF8
    Codec ID/Info               : UTF-8 Plain Text
    Duration                    : 1 h 15 min
    Bit rate                    : 52 b/s
    Count of elements           : 1055
    Stream size                 : 29.1 KiB (0%)
    Title                       : Inglés [CinemaniaHDD]
    Language                    : English
    Default                     : No
    Forced                      : No

    Menu
    00:00:00.000                : 1. Studio Logo
    00:00:29.000                : Scene 2
    00:01:20.000                : Scene 3
    00:03:42.000                : Scene 4
    00:04:45.000                : Scene 5
    00:07:28.000                : Scene 6
    00:14:55.000                : Scene 7
    00:22:32.000                : Scene 8
    00:29:02.000                : Scene 9
    00:34:56.000                : Scene 10
    00:36:10.000                : Scene 11
    00:42:58.000                : Scene 12
    00:45:12.000                : Scene 13
    00:47:23.000                : Scene 14
    00:47:45.000                : Scene 15
    00:55:07.000                : Scene 16
    01:02:05.000                : Scene 17
    01:09:53.000                : Scene 18
    01:16:54.000                : 19. Title Sequence
    01:17:00.000                : 20. End Credits

     

  • Peso: 7.90 GiB

Sinopsis

Un camión está causando el caos en la calle, atropellando a todo aquel que se cruza en su camino. Mientras tanto, unos adolescentes se ven envueltos en un fenómeno viral de lo más peligroso. Esta es la historia que envuelve los distintos segmentos de la tercera entrega de V/H/S, en los que se dan cita patinadores, brujos y mad doctors.

 

Español Castellano AC3 2.0 WEB-DL – Ingles AC3 5.1 WEB-DL

Ficha técnica

Video trailer de la película

Enlaces de descarga

Rip de Bluray

Descargar VHS Viral (2014) AMZN WEB-DL 1080p Castellano




Aportes de DPeliculasHDmega la pass es:dpeliculashdmega.org Aportes de CinemaniaHD la pass es:cinemaniahdd.com Aportes recientes:cinemaniahdd.net
Guardado en : Suspenso , Terror

Películas relacionadas

  • Godzilla vs. Kong (2021) REMUX 4K HDR Latino – CMHDD

    Godzilla vs. Kong (2021) REMUX 4K HDR Latino – CMHDD

    2021
    Godzilla vs. Kong (2021) REMUX 4K HDR Latino – CMHDD

    1h 54m 2021

    Godzilla y Kong, dos de las fuerzas más poderosas de un planeta habitado por todo tipo de aterradoras...

    Director: Thomas Robinson Harper

    Género: Acción

    Actores: Victoria Liu

  • Lisa Frankenstein (2024) HD 1080p Latino

    Lisa Frankenstein (2024) HD 1080p Latino

    2024
    Lisa Frankenstein (2024) HD 1080p Latino

    1h 42m 2024

    Descargar Lisa Frankenstein (2024) HD 1080p Latino. En 1989, una impopular chica de secundaria llamada...

    Director: Zelda Williams

    Género: Comedia

    Actores: Wendy Miklovic

  • Lisa Frankenstein (2024) PLACEBO Full HD 1080p Latino

    Lisa Frankenstein (2024) PLACEBO Full HD 1080p Latino

    2024
    Lisa Frankenstein (2024) PLACEBO Full HD 1080p Latino

    1h 42m 2024

    Descargar Lisa Frankenstein (2024) PLACEBO Full HD 1080p Latino. En 1989, una impopular chica de secundaria...

    Director: Zelda Williams

    Género: Comedia

    Actores: Wendy Miklovic

  • Lisa Frankenstein (2024) REMUX 1080p Latino

    Lisa Frankenstein (2024) REMUX 1080p Latino

    2024
    Lisa Frankenstein (2024) REMUX 1080p Latino

    1h 42m 2024

    Descargar Lisa Frankenstein (2024) REMUX 1080p Latino. En 1989, una impopular chica de secundaria llamada...

    Director: Zelda Williams

    Género: Comedia

    Actores: Wendy Miklovic

  • Aguas siniestras (2024) HD 1080p Latino

    Aguas siniestras (2024) HD 1080p Latino

    2024
    Aguas siniestras (2024) HD 1080p Latino

    1h 56m 2024

    Descargar Aguas siniestras (2024) HD 1080p Latino. Ray Waller, una estrella del béisbol obligada a retirarse...

    Director: Phil DeSanti

    Género: HD 1080p

    Actores: Wyatt Russell

descargar VHS Viral (2014) AMZN WEB-DL 1080p Castellano WEBDL 1080p gratis, VHS Viral (2014) AMZN WEB-DL 1080p Castellano WEBDL mega 1 link, VHS Viral (2014) AMZN WEB-DL 1080p Castellano WEBDL pelicula completa, descargar VHS Viral (2014) AMZN WEB-DL 1080p Castellano WEBDL gratis en mega.

VHS Viral (2014) AMZN WEB-DL 1080p Castellano pelicula full hd, VHS Viral (2014) AMZN WEB-DL 1080p Castellano mega latino, VHS Viral (2014) AMZN WEB-DL 1080p Castellano 4k latino, VHS Viral (2014) AMZN WEB-DL 1080p Castellano pelicula completa, VHS Viral (2014) AMZN WEB-DL 1080p Castellano descargar gratis, descargar VHS Viral (2014) AMZN WEB-DL 1080p Castellano pelicula latino, VHS Viral (2014) AMZN WEB-DL 1080p Castellano 1 link mega, VHS Viral (2014) AMZN WEB-DL 1080p Castellano 1 link google drive, VHS Viral (2014) AMZN WEB-DL 1080p Castellano hd 1080p latino.
Comentarios 0