×

¿Problemas para descargar con Mozilla, EDGE? Deshabilita la opción "Abrir vinculos en una pestaña nueva" tal como lo muestra ésta imagen.

VHS Viral (2014) AMZN WEB-DL 1080p Latino

2.810 vistas

Información de VHS Viral (2014) AMZN WEB-DL 1080p Latino

Datos de la película

  • Calidad: 1080p
  • Audio: Español Latino AC3 2.0 WEB-DL - Ingles AC3 5.1 WEB-DL
  • Subtitulos: Español Latino SRT- FORZADOS SRT
  • Resolución: 1920x1080
  • Formato: MKV
  • Codec: H.264
  • Encoder: cinemaniahdd
  • Mediainfo: Clic para Mostrar Datos Ver
  • VHS Viral (2014) AMZN WEB-DL 1080p Latino [CNMNHDD].mkv
    Format                      : Matroska
    Format version              : Version 4
    File size                   : 5.49 GiB
    Duration                    : 1 h 21 min
    Overall bit rate            : 9 659 kb/s
    Movie name                  : VHS Viral (2014) [1080p] - CinemaniaHDD.Net
    Encoded date                : UTC 2024-05-17 00:37:18
    Writing application         : mkvmerge v56.1.0 ('My Friend') 64-bit
    Writing library             : libebml v1.4.2 + libmatroska v1.6.4

    Video
    ID                          : 1
    Format                      : AVC
    Format/Info                 : Advanced Video Codec
    Format profile              : High@L4
    Format settings             : CABAC / 4 Ref Frames
    Format settings, CABAC      : Yes
    Format settings, Reference  : 4 frames
    Codec ID                    : V_MPEG4/ISO/AVC
    Duration                    : 1 h 21 min
    Bit rate mode               : Constant
    Bit rate                    : 8 408 kb/s
    Nominal bit rate            : 10 000 kb/s
    Width                       : 1 920 pixels
    Height                      : 1 080 pixels
    Display aspect ratio        : 16:9
    Frame rate mode             : Constant
    Frame rate                  : 24.000 FPS
    Color space                 : YUV
    Chroma subsampling          : 4:2:0
    Bit depth                   : 8 bits
    Scan type                   : Progressive
    Bits/(Pixel*Frame)          : 0.169
    Stream size                 : 4.78 GiB (87%)
    Title                       : CinemaniaHDD
    Default                     : Yes
    Forced                      : No
    Color range                 : Limited
    Color primaries             : BT.709
    Transfer characteristics    : BT.709
    Matrix coefficients         : BT.709

    Audio #1
    ID                          : 2
    Format                      : AC-3
    Format/Info                 : Audio Coding 3
    Commercial name             : Dolby Digital
    Codec ID                    : A_AC3
    Duration                    : 1 h 21 min
    Bit rate mode               : Constant
    Bit rate                    : 384 kb/s
    Channel(s)                  : 2 channels
    Channel layout              : L R
    Sampling rate               : 48.0 kHz
    Frame rate                  : 31.250 FPS (1536 SPF)
    Compression mode            : Lossy
    Stream size                 : 223 MiB (4%)
    Title                       : Español Latino (AC3) [CinemaniaHDD]
    Language                    : Spanish
    Service kind                : Complete Main
    Default                     : Yes
    Forced                      : No

    Audio #2
    ID                          : 3
    Format                      : E-AC-3
    Format/Info                 : Enhanced AC-3
    Commercial name             : Dolby Digital Plus
    Codec ID                    : A_EAC3
    Duration                    : 1 h 21 min
    Bit rate mode               : Constant
    Bit rate                    : 224 kb/s
    Channel(s)                  : 2 channels
    Channel layout              : L R
    Sampling rate               : 48.0 kHz
    Frame rate                  : 31.250 FPS (1536 SPF)
    Compression mode            : Lossy
    Stream size                 : 130 MiB (2%)
    Title                       : Español Latino (E-AC3) [CinemaniaHDD]
    Language                    : Spanish
    Service kind                : Complete Main
    Default                     : No
    Forced                      : No

    Audio #3
    ID                          : 4
    Format                      : E-AC-3
    Format/Info                 : Enhanced AC-3
    Commercial name             : Dolby Digital Plus
    Codec ID                    : A_EAC3
    Duration                    : 1 h 21 min
    Bit rate mode               : Constant
    Bit rate                    : 640 kb/s
    Channel(s)                  : 6 channels
    Channel layout              : L R C LFE Ls Rs
    Sampling rate               : 48.0 kHz
    Frame rate                  : 31.250 FPS (1536 SPF)
    Compression mode            : Lossy
    Stream size                 : 372 MiB (7%)
    Title                       : Inglés (Original) [CinemaniaHDD]
    Language                    : English
    Service kind                : Complete Main
    Default                     : No
    Forced                      : No

    Text #1
    ID                          : 5
    Format                      : UTF-8
    Codec ID                    : S_TEXT/UTF8
    Codec ID/Info               : UTF-8 Plain Text
    Duration                    : 1 h 14 min
    Bit rate                    : 0 b/s
    Count of elements           : 14
    Stream size                 : 352 Bytes (0%)
    Title                       : Forzados [CinemaniaHDD]
    Language                    : Spanish
    Default                     : Yes
    Forced                      : Yes

    Text #2
    ID                          : 6
    Format                      : UTF-8
    Codec ID                    : S_TEXT/UTF8
    Codec ID/Info               : UTF-8 Plain Text
    Duration                    : 1 h 20 min
    Bit rate                    : 35 b/s
    Count of elements           : 651
    Stream size                 : 21.1 KiB (0%)
    Title                       : Español Latino [CinemaniaHDD]
    Language                    : Spanish
    Default                     : No
    Forced                      : No

     

     

  • Peso: 5.49 GiB

Sinopsis

Un camión está causando el caos en la calle, atropellando a todo aquel que se cruza en su camino. Mientras tanto, unos adolescentes se ven envueltos en un fenómeno viral de lo más peligroso. Esta es la historia que envuelve los distintos segmentos de la tercera entrega de V/H/S, en los que se dan cita patinadores, brujos y mad doctors.

Ficha técnica

Video trailer de la película

Enlaces de descarga

Rip de Bluray

Descargar VHS Viral (2014) AMZN WEB-DL 1080p Latino




Aportes de DPeliculasHDmega la pass es:dpeliculashdmega.org Aportes de CinemaniaHD la pass es:cinemaniahdd.com Aportes recientes:cinemaniahdd.net
Guardado en : Suspenso , Terror

Películas relacionadas

  • Wolves (2022) AMZN WEB-DL 1080p Latino

    Wolves (2022) AMZN WEB-DL 1080p Latino

    2022
    Wolves (2022) AMZN WEB-DL 1080p Latino

    1h 43m 2022

    Un joven solitario se depara con una serie de crímenes sin resolver, que involucran animales mutilados...

    Director: Danny Dunlop

    Género: Crimen

    Actores: Rod Keith

  • Tarot (2024) REMUX 1080p Latino-CMHDD

    Tarot (2024) REMUX 1080p Latino-CMHDD

    2024
    Tarot (2024) REMUX 1080p Latino-CMHDD

    1h 32m 2024

    Descargar Tarot (2024) REMUX 1080p Latino-CMHDD. Un grupo de amigos de la universidad comienzan a morir...

    Director: Spenser Cohen

    Género: Remux

    Actores: Wolfgang Novogratz

  • Tarot (2024) Full HD 1080p Latino-CMHDD

    Tarot (2024) Full HD 1080p Latino-CMHDD

    2024
    Tarot (2024) Full HD 1080p Latino-CMHDD

    1h 32m 2024

    Descargar Tarot (2024) Full HD 1080p Latino-CMHDD. Un grupo de amigos de la universidad comienzan a morir...

    Director: Spenser Cohen

    Género: FULL 1080p Plateadas

    Actores: Wolfgang Novogratz

descargar VHS Viral (2014) AMZN WEB-DL 1080p Latino 1080p 1080p gratis, VHS Viral (2014) AMZN WEB-DL 1080p Latino 1080p mega 1 link, VHS Viral (2014) AMZN WEB-DL 1080p Latino 1080p pelicula completa, descargar VHS Viral (2014) AMZN WEB-DL 1080p Latino 1080p gratis en mega.

VHS Viral (2014) AMZN WEB-DL 1080p Latino pelicula full hd, VHS Viral (2014) AMZN WEB-DL 1080p Latino mega latino, VHS Viral (2014) AMZN WEB-DL 1080p Latino 4k latino, VHS Viral (2014) AMZN WEB-DL 1080p Latino pelicula completa, VHS Viral (2014) AMZN WEB-DL 1080p Latino descargar gratis, descargar VHS Viral (2014) AMZN WEB-DL 1080p Latino pelicula latino, VHS Viral (2014) AMZN WEB-DL 1080p Latino 1 link mega, VHS Viral (2014) AMZN WEB-DL 1080p Latino 1 link google drive, VHS Viral (2014) AMZN WEB-DL 1080p Latino hd 1080p latino.
Comentarios 0