×

¿Problemas para descargar con Mozilla, EDGE? Deshabilita la opción "Abrir vinculos en una pestaña nueva" tal como lo muestra ésta imagen.

The Witches (2020) HMAX WEB-DL 1080p Latino

378 vistas

Información de The Witches (2020) HMAX WEB-DL 1080p Latino

Datos de la película

  • Calidad: WEBDL
  • Audio: Español Latino AC3 2.0 WEB-DL - Ingles AC3 5.1 WEB-DL
  • Subtitulos: Ingles SRT
  • Resolución: 1920x816
  • Formato: MKV
  • Codec: H.264
  • Encoder:
  • Mediainfo: Clic para Mostrar Datos Ver
  • The Witches (2020) HMAX WEB-DL 1080p Latino.mkv
    Format                      : Matroska
    Format version              : Version 4
    File size                   : 6.46 GiB
    Duration                    : 1 h 44 min
    Overall bit rate mode       : Variable
    Overall bit rate            : 8 871 kb/s
    Movie name                  : The Witches (2020) - CinemaniaHDD.Net
    Encoded date                : UTC 2020-10-22 23:53:20
    Writing application         : mkvmerge v51.0.0 ('I Wish') 64-bit
    Writing library             : libebml v1.4.0 + libmatroska v1.6.2

    Video
    ID                          : 1
    Format                      : AVC
    Format/Info                 : Advanced Video Codec
    Format profile              : High@L4
    Format settings             : CABAC / 4 Ref Frames
    Format settings, CABAC      : Yes
    Format settings, Reference  : 4 frames
    Codec ID                    : V_MPEG4/ISO/AVC
    Duration                    : 1 h 44 min
    Bit rate mode               : Variable
    Bit rate                    : 8 228 kb/s
    Maximum bit rate            : 12.4 Mb/s
    Width                       : 1 920 pixels
    Height                      : 816 pixels
    Display aspect ratio        : 2.35:1
    Frame rate mode             : Constant
    Frame rate                  : 23.976 (24000/1001) FPS
    Color space                 : YUV
    Chroma subsampling          : 4:2:0
    Bit depth                   : 8 bits
    Scan type                   : Progressive
    Bits/(Pixel*Frame)          : 0.219
    Stream size                 : 5.99 GiB (93%)
    Title                       : CinemaniaHDD
    Default                     : Yes
    Forced                      : No
    Color range                 : Limited
    Color primaries             : BT.709
    Transfer characteristics    : BT.709
    Matrix coefficients         : BT.709

    Audio #1
    ID                          : 2
    Format                      : AC-3
    Format/Info                 : Audio Coding 3
    Commercial name             : Dolby Digital
    Codec ID                    : A_AC3
    Duration                    : 1 h 44 min
    Bit rate mode               : Constant
    Bit rate                    : 256 kb/s
    Channel(s)                  : 2 channels
    Channel layout              : L R
    Sampling rate               : 48.0 kHz
    Frame rate                  : 31.250 FPS (1536 SPF)
    Compression mode            : Lossy
    Stream size                 : 191 MiB (3%)
    Title                       : Español latino [CinemaniaHDD]
    Language                    : Spanish
    Service kind                : Complete Main
    Default                     : Yes
    Forced                      : No

    Audio #2
    ID                          : 3
    Format                      : AC-3
    Format/Info                 : Audio Coding 3
    Commercial name             : Dolby Digital
    Codec ID                    : A_AC3
    Duration                    : 1 h 44 min
    Bit rate mode               : Constant
    Bit rate                    : 384 kb/s
    Channel(s)                  : 6 channels
    Channel layout              : L R C LFE Ls Rs
    Sampling rate               : 48.0 kHz
    Frame rate                  : 31.250 FPS (1536 SPF)
    Compression mode            : Lossy
    Stream size                 : 286 MiB (4%)
    Title                       : Inglés [CinemaniaHDD]
    Language                    : English
    Service kind                : Complete Main
    Default                     : No
    Forced                      : No

    Text #1
    ID                          : 4
    Format                      : UTF-8
    Codec ID                    : S_TEXT/UTF8
    Codec ID/Info               : UTF-8 Plain Text
    Duration                    : 1 h 31 min
    Bit rate                    : 0 b/s
    Count of elements           : 11
    Stream size                 : 408 Bytes (0%)
    Title                       : Forzados [CinemaniaHDD]
    Language                    : Spanish
    Default                     : Yes
    Forced                      : Yes

    Text #2
    ID                          : 5
    Format                      : UTF-8
    Codec ID                    : S_TEXT/UTF8
    Codec ID/Info               : UTF-8 Plain Text
    Duration                    : 1 h 36 min
    Bit rate                    : 58 b/s
    Count of elements           : 1452
    Stream size                 : 41.2 KiB (0%)
    Title                       : Español latino [CinemaniaHDD]
    Language                    : Spanish
    Default                     : No
    Forced                      : No

    Text #3
    ID                          : 6
    Format                      : UTF-8
    Codec ID                    : S_TEXT/UTF8
    Codec ID/Info               : UTF-8 Plain Text
    Duration                    : 1 h 36 min
    Bit rate                    : 69 b/s
    Count of elements           : 1788
    Stream size                 : 49.0 KiB (0%)
    Title                       : Inglés [CinemaniaHDD]
    Language                    : English
    Default                     : No
    Forced                      : No

     

  • Peso: 6.46 GiB

Sinopsis

In 1960s Alabama, an orphaned young boy staying with his grandmother at a hotel, stumbles across a conference of witches and gets transformed into a mouse by the Grand High Witch.

Ficha técnica

Video trailer de la película

Enlaces de descarga

Rip de Bluray

Descargar The Witches (2020) HMAX WEB-DL 1080p Latino




Aportes de DPeliculasHDmega la pass es:dpeliculashdmega.org Aportes de CinemaniaHD la pass es:cinemaniahdd.com
Guardado en : Adventure , Comedy , Family , Fantasy , Horror

Películas relacionadas

descargar The Witches (2020) HMAX WEB-DL 1080p Latino WEBDL 1080p gratis, The Witches (2020) HMAX WEB-DL 1080p Latino WEBDL mega 1 link, The Witches (2020) HMAX WEB-DL 1080p Latino WEBDL pelicula completa, descargar The Witches (2020) HMAX WEB-DL 1080p Latino WEBDL gratis en mega.

The Witches (2020) HMAX WEB-DL 1080p Latino pelicula full hd, The Witches (2020) HMAX WEB-DL 1080p Latino mega latino, The Witches (2020) HMAX WEB-DL 1080p Latino 4k latino, The Witches (2020) HMAX WEB-DL 1080p Latino pelicula completa, The Witches (2020) HMAX WEB-DL 1080p Latino descargar gratis, descargar The Witches (2020) HMAX WEB-DL 1080p Latino pelicula latino, The Witches (2020) HMAX WEB-DL 1080p Latino 1 link mega, The Witches (2020) HMAX WEB-DL 1080p Latino 1 link google drive, The Witches (2020) HMAX WEB-DL 1080p Latino hd 1080p latino.
Comentarios 0