×

¿Problemas para descargar con Mozilla, EDGE? Deshabilita la opción "Abrir vinculos en una pestaña nueva" tal como lo muestra ésta imagen.

The War Wagon (1967) REMUX 1080p Latino – CMHDD

212 vistas

Información de The War Wagon (1967) REMUX 1080p Latino – CMHDD

Datos de la película

  • Calidad: Full 1080p
  • Audio: Se especifica abajo de la Sinopsis
  • Subtitulos: Español Latino PGS
  • Resolución: 1920x1080p
  • Formato: MKV
  • Codec: H.264
  • Encoder: Dracarys
  • Mediainfo: Clic para Mostrar Datos Ver
  • Format                      : Matroska
    Format version              : Version 4
    File size                   : 23.8 GiB
    Duration                    : 1 h 40 min
    Overall bit rate mode       : Variable
    Overall bit rate            : 33.8 Mb/s
    Movie name                  : The War Wagon (1967) REMUX 1080p Latino - CMHDD
    Encoded date                : UTC 2021-07-15 05:56:07
    Writing application         : mkvmerge v56.1.0 ('My Friend') 64-bit
    Writing library             : libebml v1.4.2 + libmatroska v1.6.4
    Cover                       : Yes
    Attachments                 : cover.jpg

    Video
    ID                          : 1
    ID in the original source m : 4113 (0x1011)
    Format                      : VC-1
    Format profile              : Advanced@L3
    Codec ID                    : V_MS/VFW/FOURCC / WVC1
    Codec ID/Hint               : Microsoft
    Duration                    : 1 h 40 min
    Bit rate                    : 31.5 Mb/s
    Width                       : 1 920 pixels
    Height                      : 1 080 pixels
    Display aspect ratio        : 16:9
    Frame rate mode             : Constant
    Frame rate                  : 23.976 (24000/1001) FPS
    Color space                 : YUV
    Chroma subsampling          : 4:2:0
    Bit depth                   : 8 bits
    Scan type                   : Progressive
    Compression mode            : Lossy
    Bits/(Pixel*Frame)          : 0.634
    Stream size                 : 22.2 GiB (93%)
    Default                     : Yes
    Forced                      : No
    Original source medium      : Blu-ray

    Audio #1
    ID                          : 2
    ID in the original source m : 4352 (0x1100)
    Format                      : DTS XLL
    Format/Info                 : Digital Theater Systems
    Commercial name             : DTS-HD Master Audio
    Codec ID                    : A_DTS
    Duration                    : 1 h 40 min
    Bit rate mode               : Variable
    Bit rate                    : 1 823 kb/s
    Channel(s)                  : 2 channels
    Channel layout              : L R
    Sampling rate               : 48.0 kHz
    Frame rate                  : 93.750 FPS (512 SPF)
    Bit depth                   : 24 bits
    Compression mode            : Lossless
    Stream size                 : 1.28 GiB (5%)
    Language                    : English
    Default                     : No
    Forced                      : No
    Original source medium      : Blu-ray

    Audio #2
    ID                          : 3
    ID in the original source m : 4357 (0x1105)
    Format                      : DTS
    Format/Info                 : Digital Theater Systems
    Codec ID                    : A_DTS
    Duration                    : 1 h 40 min
    Bit rate mode               : Constant
    Bit rate                    : 447 kb/s
    Channel(s)                  : 2 channels
    Channel layout              : L R
    Sampling rate               : 48.0 kHz
    Frame rate                  : 93.750 FPS (512 SPF)
    Bit depth                   : 24 bits
    Compression mode            : Lossy
    Stream size                 : 322 MiB (1%)
    Language                    : Spanish
    Default                     : Yes
    Forced                      : No
    Original source medium      : Blu-ray

    Text
    ID                          : 4
    ID in the original source m : 4614 (0x1206)
    Format                      : PGS
    Muxing mode                 : zlib
    Codec ID                    : S_HDMV/PGS
    Codec ID/Info               : Picture based subtitle format used on BDs/HD-DVDs
    Duration                    : 1 h 39 min
    Bit rate                    : 20.8 kb/s
    Count of elements           : 1698
    Stream size                 : 14.8 MiB (0%)
    Language                    : Spanish
    Default                     : No
    Forced                      : No
    Original source medium      : Blu-ray

    Menu
    00:00:00.000                : Chapter 01
    00:08:55.493                : Chapter 02
    00:16:09.134                : Chapter 03
    00:22:16.918                : Chapter 04
    00:28:21.241                : Chapter 05
    00:32:22.774                : Chapter 06
    00:38:08.744                : Chapter 07
    00:41:55.054                : Chapter 08
    00:49:32.594                : Chapter 09
    00:53:38.340                : Chapter 10
    01:00:24.746                : Chapter 11
    01:11:16.146                : Chapter 12
    01:21:44.566                : Chapter 13
    01:26:01.406                : Chapter 14
    01:30:27.588                : Chapter 15
    01:39:22.122                : Chapter 16

  • Peso: 23.8 GiB

Sinopsis

Taw Jackson, un preso que disfruta de libertad provisional, quiere aprovechar la ocasión para vengarse de Frank Pierce, el hombre que unos años antes, le tendió una trampa que lo condujo a la cárcel. El objetivo de Pierce era quedarse con la finca de Jackson, en la que se había descubierto un filón de oro. Pero Jackson está decidido a desbaratar los planes de su enemigo.

 

Latino: DTS 2.0  –  Ingles: DTS-HD Master Audio 2.0

Ficha técnica

Video trailer de la película

Enlaces de descarga

Rip de Bluray

Descargar The War Wagon (1967) REMUX 1080p Latino – CMHDD


Aportes de DPeliculasHDmega la pass es:dpeliculashdmega.org Aportes de CinemaniaHD la pass es:cinemaniahdd.com
Guardado en : Western

Películas relacionadas

descargar The War Wagon (1967) REMUX 1080p Latino – CMHDD Full 1080p 1080p gratis, The War Wagon (1967) REMUX 1080p Latino – CMHDD Full 1080p mega 1 link, The War Wagon (1967) REMUX 1080p Latino – CMHDD Full 1080p pelicula completa, descargar The War Wagon (1967) REMUX 1080p Latino – CMHDD Full 1080p gratis en mega.

The War Wagon (1967) REMUX 1080p Latino – CMHDD pelicula full hd, The War Wagon (1967) REMUX 1080p Latino – CMHDD mega latino, The War Wagon (1967) REMUX 1080p Latino – CMHDD 4k latino, The War Wagon (1967) REMUX 1080p Latino – CMHDD pelicula completa, The War Wagon (1967) REMUX 1080p Latino – CMHDD descargar gratis, descargar The War Wagon (1967) REMUX 1080p Latino – CMHDD pelicula latino, The War Wagon (1967) REMUX 1080p Latino – CMHDD 1 link mega, The War Wagon (1967) REMUX 1080p Latino – CMHDD 1 link google drive, The War Wagon (1967) REMUX 1080p Latino – CMHDD hd 1080p latino.