×

¿Problemas para descargar con Mozilla, EDGE? Deshabilita la opción "Abrir vinculos en una pestaña nueva" tal como lo muestra ésta imagen.

Westworld (1973) REMUX 1080p Latino-CMHDD

40 vistas

Información de Westworld (1973) REMUX 1080p Latino-CMHDD

Datos de la película

  • Calidad: Full 1080p
  • Audio: Español Latino AC3 2.0 WEB-DL - Ingles DTS 5.1 BLURAY
  • Subtitulos: Español PGS - Ingles PGS
  • Resolución: 1920x1080p
  • Formato: MKV
  • Codec: H.264
  • Encoder: CinefiloCool
  • Mediainfo: Clic para Mostrar Datos Ver
  • Westworld (1973) REMUX 1080p Latino-CMHDD.mkv
    Format                      : Matroska
    Format version              : Version 4
    File size                   : 15.7 GiB
    Duration                    : 1 h 28 min
    Overall bit rate mode       : Variable
    Overall bit rate            : 25.3 Mb/s
    Movie name                  : Westworld (1973) CinemaniaHDD.Net
    Encoded date                : UTC 2022-08-29 03:54:33
    Writing application         : mkvmerge v56.1.0 ('My Friend') 64-bit
    Writing library             : libebml v1.4.2 + libmatroska v1.6.4
    Attachments                 : CINEMANIAHD.png

    Video
    ID                          : 1
    Format                      : AVC
    Format/Info                 : Advanced Video Codec
    Format profile              : High@L4.1
    Format settings             : CABAC / 2 Ref Frames
    Format settings, CABAC      : Yes
    Format settings, Reference  : 2 frames
    Codec ID                    : V_MPEG4/ISO/AVC
    Duration                    : 1 h 28 min
    Bit rate mode               : Variable
    Bit rate                    : 21.7 Mb/s
    Width                       : 1 920 pixels
    Height                      : 1 080 pixels
    Display aspect ratio        : 16:9
    Frame rate mode             : Constant
    Frame rate                  : 23.976 (24000/1001) FPS
    Color space                 : YUV
    Chroma subsampling          : 4:2:0
    Bit depth                   : 8 bits
    Scan type                   : Progressive
    Bits/(Pixel*Frame)          : 0.437
    Stream size                 : 13.5 GiB (86%)
    Title                       : REMUX HD1080p [CinemaniaHDD]
    Language                    : English
    Default                     : Yes
    Forced                      : Yes

    Audio #1
    ID                          : 2
    Format                      : AC-3
    Format/Info                 : Audio Coding 3
    Commercial name             : Dolby Digital
    Codec ID                    : A_AC3
    Duration                    : 1 h 28 min
    Bit rate mode               : Constant
    Bit rate                    : 256 kb/s
    Channel(s)                  : 2 channels
    Channel layout              : L R
    Sampling rate               : 48.0 kHz
    Frame rate                  : 31.250 FPS (1536 SPF)
    Compression mode            : Lossy
    Stream size                 : 163 MiB (1%)
    Title                       : Español Latino [CinemaniaHDD]
    Language                    : Spanish
    Service kind                : Complete Main
    Default                     : Yes
    Forced                      : Yes

    Audio #2
    ID                          : 3
    Format                      : DTS XLL
    Format/Info                 : Digital Theater Systems
    Commercial name             : DTS-HD Master Audio
    Codec ID                    : A_DTS
    Duration                    : 1 h 28 min
    Bit rate mode               : Variable
    Bit rate                    : 3 331 kb/s
    Channel(s)                  : 6 channels
    Channel layout              : C L R Ls Rs LFE
    Sampling rate               : 48.0 kHz
    Frame rate                  : 93.750 FPS (512 SPF)
    Bit depth                   : 24 bits
    Compression mode            : Lossless
    Stream size                 : 2.07 GiB (13%)
    Title                       : Ingles [CinemaniaHDD]
    Language                    : English
    Default                     : No
    Forced                      : No

    Text #1
    ID                          : 4
    Format                      : PGS
    Muxing mode                 : zlib
    Codec ID                    : S_HDMV/PGS
    Codec ID/Info               : Picture based subtitle format used on BDs/HD-DVDs
    Duration                    : 1 h 28 min
    Bit rate                    : 16.7 kb/s
    Count of elements           : 1234
    Stream size                 : 10.6 MiB (0%)
    Title                       : Español-PGS [CinemaniaHDD]
    Language                    : Spanish
    Default                     : No
    Forced                      : No

    Text #2
    ID                          : 5
    Format                      : PGS
    Muxing mode                 : zlib
    Codec ID                    : S_HDMV/PGS
    Codec ID/Info               : Picture based subtitle format used on BDs/HD-DVDs
    Duration                    : 1 h 28 min
    Bit rate                    : 18.9 kb/s
    Count of elements           : 1280
    Stream size                 : 11.9 MiB (0%)
    Title                       : Ingles-PGS [CinemaniaHDD]
    Language                    : English
    Default                     : No
    Forced                      : No

    Text #3
    ID                          : 6
    Format                      : UTF-8
    Codec ID                    : S_TEXT/UTF8
    Codec ID/Info               : UTF-8 Plain Text
    Duration                    : 1 h 12 min
    Bit rate                    : 0 b/s
    Count of elements           : 11
    Stream size                 : 220 Bytes (0%)
    Title                       : Forzados-SRT [CinemaniaHDD]
    Language                    : Spanish
    Default                     : Yes
    Forced                      : Yes

    Text #4
    ID                          : 7
    Format                      : UTF-8
    Codec ID                    : S_TEXT/UTF8
    Codec ID/Info               : UTF-8 Plain Text
    Duration                    : 1 h 28 min
    Bit rate                    : 32 b/s
    Count of elements           : 618
    Stream size                 : 20.9 KiB (0%)
    Title                       : Español-SRT [CinemaniaHDD]
    Language                    : Spanish
    Default                     : No
    Forced                      : No

    Menu
    00:00:00.000                : Logos/Testimonials
    00:02:58.345                : Title/Orientation
    00:07:24.027                : In Transit/Suiting Up
    00:10:16.199                : All the Amenities
    00:13:11.916                : The Gunslinger
    00:17:11.739                : Pete's 'Move'
    00:18:20.391                : "Try It. Shoot Me."
    00:20:02.451                : At Miss Carrie's
    00:26:13.655                : The Night Shift
    00:28:23.201                : Robot Repair
    00:31:04.571                : The Breakdowns
    00:32:29.447                : Resort Activation
    00:34:53.675                : He's Back
    00:36:59.467                : Jailed...
    00:39:52.724                : ...& Bailed
    00:42:23.875                : A Queen's Infidelity
    00:44:20.950                : A New Sheriff
    00:45:30.061                : Robot Rattler
    00:48:53.806                : Revelers & Brawlers
    00:52:26.643                : Adjustments
    00:54:30.100                : Getting Medieval
    00:58:57.826                : "I'm Shot!"
    01:02:20.862                : Cyber-Mayhem
    01:03:39.649                : Pete is Hunted
    01:07:17.325                : "You Haven't a Chance"
    01:11:00.214                : When in Rome, Run!
    01:14:40.393                : Giving an Eyeful
    01:17:45.870                : Assault w/o Battery
    01:18:54.229                : Into the King's Court
    01:20:03.841                : Flamethrowing Him Off
    01:23:08.567                : Ruthless & Faceless
    01:27:04.052                : End Credits

  • Peso: 15.7 GiB

Sinopsis

Descargar Westworld (1973) REMUX 1080p Latino-CMHD. En un futuro próximo existe un gigantesco parque de vacaciones dividido en tres zonas: la Roma Imperial, el Oeste americano y la Europa Medieval. Cada una de ellas reproduce con total fidelidad las características de cada época. Existe, además, la posibilidad de que quien pueda permitírse el lujo viva sus propias aventuras en la época elegida. Al parque han ido de vacaciones un par de amigos, Peter Martin (Richard Benjamin) y John Blane (James Brolin). Todo está perfectamente controlado hasta que los robots que hacen de figurantes empiezan a fallar, en concreto un implacable pistolero (Yul Brynner) diseñado para perseguir sin descanso a sus víctimas.

Disponible Solo Para VIP!!!

Ficha técnica

Video trailer de la película

Enlaces de descarga

Rip de Bluray

Descargar Westworld (1973) REMUX 1080p Latino-CMHDD


Aportes de DPeliculasHDmega la pass es:dpeliculashdmega.org Aportes de CinemaniaHD la pass es:cinemaniahdd.com
Guardado en : Aventura , Ciencia ficción , Remux , Western

Películas relacionadas

  • Wire Room (2022) REMUX 1080p Latino

    Wire Room (2022) REMUX 1080p Latino

    2022
    Wire Room (2022) REMUX 1080p Latino

    1h 37m 2022

    Descargar Wire Room (2022) REMUX 1080p Latino. Mientras está de servicio en la sala de cables, un agente...

    Director: Matt Eskandari

    Género: Acción

    Actores: Texas Battle

  • Alarido (2022) REMUX 1080p Latino

    Alarido (2022) REMUX 1080p Latino

    2022
    Alarido (2022) REMUX 1080p Latino

    1h 29m 2022

    Descargar Alarido (2022) REMUX 1080p Latino. Una joven madre soltera es cautiva junto con sus dos hijos...

    Director: D.J. Caruso

    Género: Remux

    Actores: Vincent Gallo

  • El Cuartel Secreto (2022) WEB-DL 4K UHD HDR Latino

    El Cuartel Secreto (2022) WEB-DL 4K UHD HDR Latino

    2022
    El Cuartel Secreto (2022) WEB-DL 4K UHD HDR Latino

    1h 44m 2022

    Descargar El Cuartel Secreto (2022) WEB-DL 4K UHD HDR Latino. Mientras pasan el rato después de la escuela,...

    Director: Henry Joost

    Género: 4K HDR

    Actores: Zeb Slone

  • El Cuartel Secreto (2022) WEB-DL 1080p Latino

    El Cuartel Secreto (2022) WEB-DL 1080p Latino

    2022
    El Cuartel Secreto (2022) WEB-DL 1080p Latino

    1h 44m 2022

    Descargar El Cuartel Secreto (2022) WEB-DL 1080p Latino. Mientras pasan el rato después de la escuela,...

    Director: Henry Joost

    Género: Acción

    Actores: Zeb Slone

  • Men in Black (1997) REMUX 4K HDR Latino – CMHDD

    Men in Black (1997) REMUX 4K HDR Latino – CMHDD

    1997
    Men in Black (1997) REMUX 4K HDR Latino – CMHDD

    1h 34m 1997

    Durante muchos años los extraterrestres han vivido en la Tierra, mezclados con los humanos, sin que...

    Director: Tyrone S. Walker

    Género: Acción

    Actores: Willie C. Carpenter

descargar Westworld (1973) REMUX 1080p Latino-CMHDD Full 1080p 1080p gratis, Westworld (1973) REMUX 1080p Latino-CMHDD Full 1080p mega 1 link, Westworld (1973) REMUX 1080p Latino-CMHDD Full 1080p pelicula completa, descargar Westworld (1973) REMUX 1080p Latino-CMHDD Full 1080p gratis en mega.

Westworld (1973) REMUX 1080p Latino-CMHDD pelicula full hd, Westworld (1973) REMUX 1080p Latino-CMHDD mega latino, Westworld (1973) REMUX 1080p Latino-CMHDD 4k latino, Westworld (1973) REMUX 1080p Latino-CMHDD pelicula completa, Westworld (1973) REMUX 1080p Latino-CMHDD descargar gratis, descargar Westworld (1973) REMUX 1080p Latino-CMHDD pelicula latino, Westworld (1973) REMUX 1080p Latino-CMHDD 1 link mega, Westworld (1973) REMUX 1080p Latino-CMHDD 1 link google drive, Westworld (1973) REMUX 1080p Latino-CMHDD hd 1080p latino.
Comentarios 0