×

¿Problemas para descargar con Mozilla, EDGE? Deshabilita la opción "Abrir vinculos en una pestaña nueva" tal como lo muestra ésta imagen.

The Matrix Revolutions (2003) REMUX 1080p Latino

1.178 vistas

Información de The Matrix Revolutions (2003) REMUX 1080p Latino

Datos de la película

  • Calidad: Full 1080p
  • Audio: Español Latino AC3 2.0 BLURAY - Ingles AC3 5.1 BLURAY
  • Subtitulos: Español Latino SRT
  • Resolución: 1920x1080p
  • Formato: MKV
  • Codec: H.264
  • Encoder: Dracarys
  • Mediainfo: Clic para Mostrar Datos Ver
  • Format                      : Matroska
    Format version              : Version 4
    File size                   : 15.0 GiB
    Duration                    : 2 h 9 min
    Overall bit rate mode       : Variable
    Overall bit rate            : 16.6 Mb/s
    Movie name                  : CinemaniaHDD.net
    Encoded date                : UTC 2020-01-21 00:40:34
    Writing application         : mkvmerge v38.0.0 ('The Silent Type') 64-bit
    Writing library             : libebml v1.3.9 + libmatroska v1.5.2

    Video
    ID                          : 1
    Format                      : VC-1
    Format profile              : Advanced@L3
    Codec ID                    : V_MS/VFW/FOURCC / WVC1
    Codec ID/Hint               : Microsoft
    Duration                    : 2 h 9 min
    Bit rate                    : 13.9 Mb/s
    Width                       : 1 920 pixels
    Height                      : 1 080 pixels
    Display aspect ratio        : 16:9
    Frame rate mode             : Constant
    Frame rate                  : 23.976 (24000/1001) FPS
    Color space                 : YUV
    Chroma subsampling          : 4:2:0
    Bit depth                   : 8 bits
    Scan type                   : Progressive
    Compression mode            : Lossy
    Bits/(Pixel*Frame)          : 0.279
    Stream size                 : 12.5 GiB (84%)
    Language                    : English
    Default                     : Yes
    Forced                      : No

    Audio #1
    ID                          : 2
    Format                      : MLP FBA
    Format/Info                 : Meridian Lossless Packing FBA
    Commercial name             : Dolby TrueHD
    Codec ID                    : A_TRUEHD
    Duration                    : 2 h 9 min
    Bit rate mode               : Variable
    Bit rate                    : 1 801 kb/s
    Maximum bit rate            : 3 267 kb/s
    Channel(s)                  : 6 channels
    Channel layout              : L R C LFE Ls Rs
    Sampling rate               : 48.0 kHz
    Frame rate                  : 1 200.000 FPS (40 SPF)
    Compression mode            : Lossless
    Stream size                 : 1.63 GiB (11%)
    Language                    : English
    Default                     : No
    Forced                      : No

    Audio #2
    ID                          : 3
    Format                      : AC-3
    Format/Info                 : Audio Coding 3
    Commercial name             : Dolby Digital
    Codec ID                    : A_AC3
    Duration                    : 2 h 9 min
    Bit rate mode               : Constant
    Bit rate                    : 192 kb/s
    Channel(s)                  : 2 channels
    Channel layout              : L R
    Sampling rate               : 48.0 kHz
    Frame rate                  : 31.250 FPS (1536 SPF)
    Bit depth                   : 16 bits
    Compression mode            : Lossy
    Stream size                 : 178 MiB (1%)
    Language                    : Spanish
    Service kind                : Complete Main
    Default                     : Yes
    Forced                      : No

    Audio #3
    ID                          : 4
    Format                      : AC-3
    Format/Info                 : Audio Coding 3
    Commercial name             : Dolby Digital
    Codec ID                    : A_AC3
    Duration                    : 2 h 9 min
    Bit rate mode               : Constant
    Bit rate                    : 640 kb/s
    Channel(s)                  : 6 channels
    Channel layout              : L R C LFE Ls Rs
    Sampling rate               : 48.0 kHz
    Frame rate                  : 31.250 FPS (1536 SPF)
    Bit depth                   : 16 bits
    Compression mode            : Lossy
    Stream size                 : 592 MiB (4%)
    Language                    : English
    Service kind                : Complete Main
    Default                     : No
    Forced                      : No

    Text #1
    ID                          : 5
    Format                      : VobSub
    Muxing mode                 : zlib
    Codec ID                    : S_VOBSUB
    Codec ID/Info               : Picture based subtitle format used on DVDs
    Duration                    : 2 h 8 min
    Bit rate                    : 6 168 b/s
    Count of elements           : 1057
    Stream size                 : 5.67 MiB (0%)
    Language                    : Spanish
    Default                     : No
    Forced                      : No

    Text #2
    ID                          : 6
    Format                      : UTF-8
    Codec ID                    : S_TEXT/UTF8
    Codec ID/Info               : UTF-8 Plain Text
    Duration                    : 2 h 8 min
    Bit rate                    : 41 b/s
    Count of elements           : 1053
    Stream size                 : 38.7 KiB (0%)
    Language                    : Spanish
    Default                     : No
    Forced                      : No

    Menu
    00:00:00.000                : en:(01)00:00:00:000
    00:03:55.401                : en:(02)00:03:55:401
    00:07:33.119                : en:(03)00:07:33:119
    00:10:19.952                : en:(04)00:10:19:952
    00:14:44.383                : en:(05)00:14:44:383
    00:17:58.744                : en:(06)00:17:58:744
    00:23:33.245                : en:(07)00:23:33:245
    00:30:06.304                : en:(08)00:30:06:304
    00:35:35.633                : en:(09)00:35:35:633
    00:39:34.205                : en:(10)00:39:34:205
    00:42:58.909                : en:(11)00:42:58:909
    00:46:43.300                : en:(12)00:46:43:300
    00:49:02.606                : en:(13)00:49:02:606
    00:51:53.610                : en:(14)00:51:53:610
    00:58:00.643                : en:(15)00:58:00:643
    01:00:19.115                : en:(16)01:00:19:115
    01:02:29.746                : en:(17)01:02:29:746
    01:08:00.910                : en:(18)01:08:00:910
    01:10:29.225                : en:(19)01:10:29:225
    01:14:33.802                : en:(20)01:14:33:802
    01:18:23.365                : en:(21)01:18:23:365
    01:23:08.984                : en:(22)01:23:08:984
    01:25:55.817                : en:(23)01:25:55:817
    01:29:13.348                : en:(24)01:29:13:348
    01:31:51.672                : en:(25)01:31:51:672
    01:36:51.472                : en:(26)01:36:51:472
    01:41:55.275                : en:(27)01:41:55:275
    01:44:53.120                : en:(28)01:44:53:120
    01:48:06.646                : en:(29)01:48:06:646
    01:51:30.850                : en:(30)01:51:30:850
    01:55:05.899                : en:(31)01:55:05:899
    01:57:31.210                : en:(32)01:57:31:210
    02:00:12.371                : en:(33)02:00:12:371
    02:09:13.746                : en:(34)02:09:13:746

  • Peso: 15.0 GiB

Sinopsis

La tercera parte de «Matrix» forma junto a «Matrix Reloaded» una película dividida en dos debido a su larga duración. Matrix Revolutions tiene lugar en su mayor parte en en el mundo real, en el que Neo, Trinity y Morpheo lucharán contra el avance de las máquinas hacia la ciudad de Zion, último reducto de la raza humana.

Ficha técnica

Video trailer de la película

Enlaces de descarga

Rip de Bluray

Descargar The Matrix Revolutions (2003) REMUX 1080p Latino




Aportes de DPeliculasHDmega la pass es:dpeliculashdmega.org Aportes de CinemaniaHD la pass es:cinemaniahdd.com

Películas relacionadas

  • Tren Bala (2022) WEB-DL 4K UHD HDR Latino

    Tren Bala (2022) WEB-DL 4K UHD HDR Latino

    2022
    Tren Bala (2022) WEB-DL 4K UHD HDR Latino

    2h 7m 2022

    Descargar Tren Bala (2022) WEB-DL 4K UHD HDR Latino. El desafortunado asesino "Catarina" está decidido...

    Director: Paul Barry

    Género: 4K HDR

    Actores: Zooey Miyoshi

  • Tren Bala (2022) AMZN WEB-DL 1080p Latino

    Tren Bala (2022) AMZN WEB-DL 1080p Latino

    2022
    Tren Bala (2022) AMZN WEB-DL 1080p Latino

    2h 7m 2022

    Descargar Tren Bala (2022) AMZN WEB-DL 1080p Latino. Cinco asesinos a sueldo se encuentran a bordo de...

    Director: Paul Barry

    Género: Acción

    Actores: Zooey Miyoshi

  • Athena (2022) NF WEB-DL 1080p Latino

    Athena (2022) NF WEB-DL 1080p Latino

    2022
    Athena (2022) NF WEB-DL 1080p Latino

    1h 37m 2022

    Descargar Athena (2022) NF WEB-DL 1080p Latino. Horas después de la trágica muerte de su hermano menor...

    Director: Romain Gavras

    Género: Acción

    Actores: Tarek Haddaji

  • Lou (2022) NF WEB-DL 1080p Latino

    Lou (2022) NF WEB-DL 1080p Latino

    2022
    Lou (2022) NF WEB-DL 1080p Latino

    1h 47m 2022

    Descargar Lou (2022) NF WEB-DL 1080p Latino. Una mujer misteriosa y solitaria lucha contra las inclemencias...

    Director: Anna Foerster

    Género: Acción

    Actores: Toby Levins

descargar The Matrix Revolutions (2003) REMUX 1080p Latino Full 1080p 1080p gratis, The Matrix Revolutions (2003) REMUX 1080p Latino Full 1080p mega 1 link, The Matrix Revolutions (2003) REMUX 1080p Latino Full 1080p pelicula completa, descargar The Matrix Revolutions (2003) REMUX 1080p Latino Full 1080p gratis en mega.

The Matrix Revolutions (2003) REMUX 1080p Latino pelicula full hd, The Matrix Revolutions (2003) REMUX 1080p Latino mega latino, The Matrix Revolutions (2003) REMUX 1080p Latino 4k latino, The Matrix Revolutions (2003) REMUX 1080p Latino pelicula completa, The Matrix Revolutions (2003) REMUX 1080p Latino descargar gratis, descargar The Matrix Revolutions (2003) REMUX 1080p Latino pelicula latino, The Matrix Revolutions (2003) REMUX 1080p Latino 1 link mega, The Matrix Revolutions (2003) REMUX 1080p Latino 1 link google drive, The Matrix Revolutions (2003) REMUX 1080p Latino hd 1080p latino.
Comentarios 0