×

¿Problemas para descargar con Mozilla, EDGE? Deshabilita la opción "Abrir vinculos en una pestaña nueva" tal como lo muestra ésta imagen.

The Matrix Revolutions (2003) REMUX 1080p Latino – CMHDD

1.541 vistas

Información de The Matrix Revolutions (2003) REMUX 1080p Latino – CMHDD

Datos de la película

  • Calidad: Full 1080p
  • Audio: Español Latino AC3 2.0 BLURAY - Ingles AC3 5.1 BLURAY
  • Subtitulos: Español Latino SRT
  • Resolución: 1920x1080p
  • Formato: MKV
  • Codec: H.264
  • Encoder: Dracarys
  • Mediainfo: Clic para Mostrar Datos Ver
  • Format                      : Matroska
    Format version              : Version 4
    File size                   : 23.6 GiB
    Duration                    : 2 h 9 min
    Overall bit rate mode       : Variable
    Overall bit rate            : 26.1 Mb/s
    Movie name                  : The Matrix Revolutions (2003) REMUX 1080p Latino – CMHDD
    Encoded date                : UTC 2023-10-19 00:42:04
    Writing application         : mkvmerge v47.0.0 ('Black Flag') 64-bit
    Writing library             : libebml v1.3.10 + libmatroska v1.5.2
    Cover                       : Yes
    Attachments                 : cover.jpg

    Video
    ID                          : 1
    ID in the original source m : 4113 (0x1011)
    Format                      : AVC
    Format/Info                 : Advanced Video Codec
    Format profile              : High@L4.1
    Format settings             : CABAC / 4 Ref Frames
    Format settings, CABAC      : Yes
    Format settings, Reference  : 4 frames
    Codec ID                    : V_MPEG4/ISO/AVC
    Duration                    : 2 h 9 min
    Bit rate mode               : Variable
    Bit rate                    : 21.2 Mb/s
    Maximum bit rate            : 23.6 Mb/s
    Width                       : 1 920 pixels
    Height                      : 1 080 pixels
    Display aspect ratio        : 16:9
    Frame rate mode             : Constant
    Frame rate                  : 23.976 (24000/1001) FPS
    Color space                 : YUV
    Chroma subsampling          : 4:2:0
    Bit depth                   : 8 bits
    Scan type                   : Progressive
    Bits/(Pixel*Frame)          : 0.427
    Stream size                 : 19.2 GiB (81%)
    Default                     : Yes
    Forced                      : No
    Original source medium      : Blu-ray

    Audio #1
    ID                          : 2
    ID in the original source m : 4352 (0x1100)
    Format                      : MLP FBA 16-ch
    Format/Info                 : Meridian Lossless Packing FBA with 16-channel presentation
    Commercial name             : Dolby TrueHD with Dolby Atmos
    Codec ID                    : A_TRUEHD
    Duration                    : 2 h 9 min
    Bit rate mode               : Variable
    Bit rate                    : 3 527 kb/s
    Maximum bit rate            : 6 264 kb/s
    Channel(s)                  : 8 channels
    Channel layout              : L R C LFE Ls Rs Lb Rb
    Sampling rate               : 48.0 kHz
    Frame rate                  : 1 200.000 FPS (40 SPF)
    Compression mode            : Lossless
    Stream size                 : 3.19 GiB (13%)
    Language                    : English
    Default                     : No
    Forced                      : No
    Original source medium      : Blu-ray
    Number of dynamic objects   : 11
    Bed channel count           : 1 channel
    Bed channel configuration   : LFE

    Audio #2
    ID                          : 3
    ID in the original source m : 4352 (0x1100)
    Format                      : AC-3
    Format/Info                 : Audio Coding 3
    Commercial name             : Dolby Digital
    Format settings             : Dolby Surround EX
    Codec ID                    : A_AC3
    Duration                    : 2 h 9 min
    Bit rate mode               : Constant
    Bit rate                    : 448 kb/s
    Channel(s)                  : 6 channels
    Channel layout              : L R C LFE Ls Rs
    Sampling rate               : 48.0 kHz
    Frame rate                  : 31.250 FPS (1536 SPF)
    Compression mode            : Lossy
    Stream size                 : 414 MiB (2%)
    Language                    : English
    Service kind                : Complete Main
    Default                     : No
    Forced                      : No
    Original source medium      : Blu-ray

    Audio #3
    ID                          : 4
    ID in the original source m : 4353 (0x1101)
    Format                      : AC-3
    Format/Info                 : Audio Coding 3
    Commercial name             : Dolby Digital
    Codec ID                    : A_AC3
    Duration                    : 2 h 9 min
    Bit rate mode               : Constant
    Bit rate                    : 640 kb/s
    Channel(s)                  : 6 channels
    Channel layout              : L R C LFE Ls Rs
    Sampling rate               : 48.0 kHz
    Frame rate                  : 31.250 FPS (1536 SPF)
    Compression mode            : Lossy
    Stream size                 : 592 MiB (2%)
    Language                    : English
    Service kind                : Complete Main
    Default                     : No
    Forced                      : No
    Original source medium      : Blu-ray

    Audio #4
    ID                          : 5
    ID in the original source m : 4358 (0x1106)
    Format                      : AC-3
    Format/Info                 : Audio Coding 3
    Commercial name             : Dolby Digital
    Format settings             : Dolby Surround
    Codec ID                    : A_AC3
    Duration                    : 2 h 9 min
    Bit rate mode               : Constant
    Bit rate                    : 192 kb/s
    Channel(s)                  : 2 channels
    Channel layout              : L R
    Sampling rate               : 48.0 kHz
    Frame rate                  : 31.250 FPS (1536 SPF)
    Compression mode            : Lossy
    Delay relative to video     : 2 s 2 ms
    Stream size                 : 178 MiB (1%)
    Language                    : Spanish
    Service kind                : Complete Main
    Default                     : Yes
    Forced                      : No
    Original source medium      : Blu-ray

    Text #1
    ID                          : 6
    ID in the original source m : 4616 (0x1208)
    Format                      : PGS
    Muxing mode                 : zlib
    Codec ID                    : S_HDMV/PGS
    Codec ID/Info               : Picture based subtitle format used on BDs/HD-DVDs
    Duration                    : 2 h 8 min
    Bit rate                    : 22.0 kb/s
    Frame rate                  : 0.274 FPS
    Count of elements           : 2114
    Stream size                 : 20.2 MiB (0%)
    Language                    : Spanish
    Default                     : Yes
    Forced                      : No
    Original source medium      : Blu-ray

    Text #2
    ID                          : 7
    ID in the original source m : 4628 (0x1214)
    Format                      : PGS
    Muxing mode                 : zlib
    Codec ID                    : S_HDMV/PGS
    Codec ID/Info               : Picture based subtitle format used on BDs/HD-DVDs
    Duration                    : 2 h 9 min
    Bit rate                    : 54.1 kb/s
    Frame rate                  : 0.483 FPS
    Count of elements           : 3738
    Stream size                 : 50.0 MiB (0%)
    Language                    : Spanish
    Default                     : No
    Forced                      : No
    Original source medium      : Blu-ray

    Menu
    00:00:00.000                : en:Capítulo 01
    00:03:57.237                : en:Capítulo 02
    00:07:34.954                : en:Capítulo 03
    00:10:21.787                : en:Capítulo 04
    00:14:46.302                : en:Capítulo 05
    00:18:00.579                : en:Capítulo 06
    00:23:35.080                : en:Capítulo 07
    00:30:08.139                : en:Capítulo 08
    00:35:37.468                : en:Capítulo 09
    00:39:36.040                : en:Capítulo 10
    00:43:00.744                : en:Capítulo 11
    00:46:45.135                : en:Capítulo 12
    00:49:04.524                : en:Capítulo 13
    00:51:55.529                : en:Capítulo 14
    00:58:02.562                : en:Capítulo 15
    01:00:21.034                : en:Capítulo 16
    01:02:31.748                : en:Capítulo 17
    01:08:02.828                : en:Capítulo 18
    01:10:31.143                : en:Capítulo 19
    01:14:35.721                : en:Capítulo 20
    01:18:25.283                : en:Capítulo 21
    01:23:10.902                : en:Capítulo 22
    01:25:57.735                : en:Capítulo 23
    01:29:15.266                : en:Capítulo 24
    01:31:53.591                : en:Capítulo 25
    01:36:53.390                : en:Capítulo 26
    01:41:57.194                : en:Capítulo 27
    01:44:55.038                : en:Capítulo 28
    01:48:08.565                : en:Capítulo 29
    01:51:32.769                : en:Capítulo 30
    01:55:07.817                : en:Capítulo 31
    01:57:33.129                : en:Capítulo 32
    02:00:14.290                : en:Capítulo 33

     

  • Peso: 23.6 GiB

Sinopsis

La tercera parte de «Matrix» forma junto a «Matrix Reloaded» una película dividida en dos debido a su larga duración. Matrix Revolutions tiene lugar en su mayor parte en en el mundo real, en el que Neo, Trinity y Morpheo lucharán contra el avance de las máquinas hacia la ciudad de Zion, último reducto de la raza humana.

Ficha técnica

Video trailer de la película

Enlaces de descarga

Rip de Bluray

Descargar The Matrix Revolutions (2003) REMUX 1080p Latino – CMHDD




Aportes de DPeliculasHDmega la pass es:dpeliculashdmega.org Aportes de CinemaniaHD la pass es:cinemaniahdd.com Aportes recientes:cinemaniahdd.net

Películas relacionadas

descargar The Matrix Revolutions (2003) REMUX 1080p Latino – CMHDD Full 1080p 1080p gratis, The Matrix Revolutions (2003) REMUX 1080p Latino – CMHDD Full 1080p mega 1 link, The Matrix Revolutions (2003) REMUX 1080p Latino – CMHDD Full 1080p pelicula completa, descargar The Matrix Revolutions (2003) REMUX 1080p Latino – CMHDD Full 1080p gratis en mega.

The Matrix Revolutions (2003) REMUX 1080p Latino – CMHDD pelicula full hd, The Matrix Revolutions (2003) REMUX 1080p Latino – CMHDD mega latino, The Matrix Revolutions (2003) REMUX 1080p Latino – CMHDD 4k latino, The Matrix Revolutions (2003) REMUX 1080p Latino – CMHDD pelicula completa, The Matrix Revolutions (2003) REMUX 1080p Latino – CMHDD descargar gratis, descargar The Matrix Revolutions (2003) REMUX 1080p Latino – CMHDD pelicula latino, The Matrix Revolutions (2003) REMUX 1080p Latino – CMHDD 1 link mega, The Matrix Revolutions (2003) REMUX 1080p Latino – CMHDD 1 link google drive, The Matrix Revolutions (2003) REMUX 1080p Latino – CMHDD hd 1080p latino.
Comentarios 0