×

¿Problemas para descargar con Mozilla, EDGE? Deshabilita la opción "Abrir vinculos en una pestaña nueva" tal como lo muestra ésta imagen.

The Matrix (1999) REMUX 1080p Latino

1.733 vistas

Información de The Matrix (1999) REMUX 1080p Latino

Datos de la película

  • Calidad: Full 1080p
  • Audio: Español Latino AC3 2.0 BLURAY - Ingles AC3 5.1 BLURAY
  • Subtitulos: Español Latino SRT- FORZADOS SRT
  • Resolución: 1920x1080p
  • Formato: MKV
  • Codec: H.264
  • Encoder: Dracarys
  • Mediainfo: Clic para Mostrar Datos Ver
  • Format                      : Matroska
    Format version              : Version 4
    File size                   : 18.1 GiB
    Duration                    : 2 h 16 min
    Overall bit rate mode       : Variable
    Overall bit rate            : 19.0 Mb/s
    Movie name                  : CinemaniaHDD.net
    Encoded date                : UTC 2020-01-21 00:45:41
    Writing application         : mkvmerge v38.0.0 ('The Silent Type') 64-bit
    Writing library             : libebml v1.3.9 + libmatroska v1.5.2

    Video
    ID                          : 1
    Format                      : VC-1
    Format profile              : Advanced@L3
    Codec ID                    : V_MS/VFW/FOURCC / WVC1
    Codec ID/Hint               : Microsoft
    Duration                    : 2 h 16 min
    Bit rate                    : 16.4 Mb/s
    Width                       : 1 920 pixels
    Height                      : 1 080 pixels
    Display aspect ratio        : 16:9
    Frame rate mode             : Constant
    Frame rate                  : 23.976 (24000/1001) FPS
    Color space                 : YUV
    Chroma subsampling          : 4:2:0
    Bit depth                   : 8 bits
    Scan type                   : Progressive
    Compression mode            : Lossy
    Bits/(Pixel*Frame)          : 0.331
    Stream size                 : 15.7 GiB (87%)
    Language                    : English
    Default                     : Yes
    Forced                      : No

    Audio #1
    ID                          : 2
    Format                      : MLP FBA
    Format/Info                 : Meridian Lossless Packing FBA
    Commercial name             : Dolby TrueHD
    Codec ID                    : A_TRUEHD
    Duration                    : 2 h 16 min
    Bit rate mode               : Variable
    Bit rate                    : 1 646 kb/s
    Maximum bit rate            : 3 345 kb/s
    Channel(s)                  : 6 channels
    Channel layout              : L R C LFE Ls Rs
    Sampling rate               : 48.0 kHz
    Frame rate                  : 1 200.000 FPS (40 SPF)
    Compression mode            : Lossless
    Stream size                 : 1.57 GiB (9%)
    Language                    : English
    Default                     : No
    Forced                      : No

    Audio #2
    ID                          : 3
    Format                      : AC-3
    Format/Info                 : Audio Coding 3
    Commercial name             : Dolby Digital
    Codec ID                    : A_AC3
    Duration                    : 2 h 16 min
    Bit rate mode               : Constant
    Bit rate                    : 192 kb/s
    Channel(s)                  : 2 channels
    Channel layout              : L R
    Sampling rate               : 48.0 kHz
    Frame rate                  : 31.250 FPS (1536 SPF)
    Bit depth                   : 16 bits
    Compression mode            : Lossy
    Stream size                 : 187 MiB (1%)
    Language                    : Spanish
    Service kind                : Complete Main
    Default                     : Yes
    Forced                      : No

    Audio #3
    ID                          : 4
    Format                      : AC-3
    Format/Info                 : Audio Coding 3
    Commercial name             : Dolby Digital
    Codec ID                    : A_AC3
    Duration                    : 2 h 16 min
    Bit rate mode               : Constant
    Bit rate                    : 640 kb/s
    Channel(s)                  : 6 channels
    Channel layout              : L R C LFE Ls Rs
    Sampling rate               : 48.0 kHz
    Frame rate                  : 31.250 FPS (1536 SPF)
    Bit depth                   : 16 bits
    Compression mode            : Lossy
    Stream size                 : 624 MiB (3%)
    Language                    : English
    Service kind                : Complete Main
    Default                     : No
    Forced                      : No

    Text #1
    ID                          : 5
    Format                      : VobSub
    Muxing mode                 : zlib
    Codec ID                    : S_VOBSUB
    Codec ID/Info               : Picture based subtitle format used on DVDs
    Duration                    : 2 h 15 min
    Bit rate                    : 6 108 b/s
    Count of elements           : 1314
    Stream size                 : 5.92 MiB (0%)
    Language                    : Spanish
    Default                     : No
    Forced                      : No

    Text #2
    ID                          : 6
    Format                      : UTF-8
    Codec ID                    : S_TEXT/UTF8
    Codec ID/Info               : UTF-8 Plain Text
    Duration                    : 2 h 15 min
    Bit rate                    : 39 b/s
    Count of elements           : 1314
    Stream size                 : 38.7 KiB (0%)
    Language                    : Spanish
    Default                     : No
    Forced                      : No

    Menu
    00:00:00.000                : en:(01)00:00:00:000
    00:03:25.788                : en:(02)00:03:25:788
    00:06:35.645                : en:(03)00:06:35:645
    00:09:42.665                : en:(04)00:09:42:665
    00:11:58.300                : en:(05)00:11:58:300
    00:16:47.423                : en:(06)00:16:47:423
    00:21:33.542                : en:(07)00:21:33:542
    00:25:08.590                : en:(08)00:25:08:590
    00:28:51.146                : en:(09)00:28:51:146
    00:32:25.193                : en:(10)00:32:25:193
    00:35:21.869                : en:(11)00:35:21:869
    00:38:40.901                : en:(12)00:38:40:901
    00:44:22.576                : en:(13)00:44:22:576
    00:46:33.540                : en:(14)00:46:33:540
    00:48:57.851                : en:(15)00:48:57:851
    00:53:31.291                : en:(16)00:53:31:291
    00:56:32.138                : en:(17)00:56:32:138
    00:59:01.287                : en:(18)00:59:01:287
    01:01:08.581                : en:(19)01:01:08:581
    01:05:16.495                : en:(20)01:05:16:495
    01:07:46.812                : en:(21)01:07:46:812
    01:12:33.432                : en:(22)01:12:33:432
    01:17:49.581                : en:(23)01:17:49:581
    01:21:03.108                : en:(24)01:21:03:108
    01:25:05.350                : en:(25)01:25:05:350
    01:29:45.129                : en:(26)01:29:45:129
    01:31:27.565                : en:(27)01:31:27:565
    01:37:25.256                : en:(28)01:37:25:256
    01:41:04.975                : en:(29)01:41:04:975
    01:44:20.337                : en:(30)01:44:20:337
    01:47:00.497                : en:(31)01:47:00:497
    01:50:18.528                : en:(32)01:50:18:528
    01:52:56.686                : en:(33)01:52:56:686
    01:56:36.906                : en:(34)01:56:36:906
    01:58:49.372                : en:(35)01:58:49:372
    02:02:27.423                : en:(36)02:02:27:423
    02:05:41.784                : en:(37)02:05:41:784
    02:08:46.802                : en:(38)02:08:46:802

  • Peso: 18.1 GiB

Sinopsis

Thomas Anderson lleva una doble vida: por el día es programador en una importante empresa de software, y por la noche un hacker informático llamado Neo. Su vida no volverá a ser igual cuando unos misteriosos personajes le inviten a descubrir la pregunta que no le deja dormir: ¿qué es Matrix?

Ficha técnica

Video trailer de la película

Enlaces de descarga

Rip de Bluray

Descargar The Matrix (1999) REMUX 1080p Latino




Aportes de DPeliculasHDmega la pass es:dpeliculashdmega.org Aportes de CinemaniaHD la pass es:cinemaniahdd.com
Guardado en : Acción , Ciencia ficción , Remux

Películas relacionadas

  • Paradise Highway (2022) REMUX 1080p Latino

    Paradise Highway (2022) REMUX 1080p Latino

    2022
    Paradise Highway (2022) REMUX 1080p Latino

    1h 55m 2022

    Descargar Paradise Highway (2022) REMUX 1080p Latino. Un camionero se ha visto obligado a pasar de contrabando...

    Director: Anna Gutto

    Género: Crimen

    Actores: Xavier Scott Evans

  • Shotgun Wedding (2022) AMZN WEB-DL 1080p Latino

    Shotgun Wedding (2022) AMZN WEB-DL 1080p Latino

    2022
    Shotgun Wedding (2022) AMZN WEB-DL 1080p Latino

    1h 41m 2022

    Darcy y Tom reúnen a sus familias para la boda de destino definitiva, pero cuando toman como rehenes...

    Director: Jason Moore

    Género: Acción

    Actores: Steve Coulter

  • M3GAN (2023) AMZN WEB-DL 4K UHD HDR Latino

    M3GAN (2023) AMZN WEB-DL 4K UHD HDR Latino

    2022
    M3GAN (2023) AMZN WEB-DL 4K UHD HDR Latino

    1h 42m 2022

    Descargar M3GAN (2023) AMZN WEB-DL 4K UHD HDR Latino. Cuando Gemma se convierte en la cuidadora de su...

    Director: Stephen W. Moore

    Género: 4K HDR

    Actores: Violet McGraw

  • M3GAN (2022) MA WEB-DL 1080p Latino

    M3GAN (2022) MA WEB-DL 1080p Latino

    2022
    M3GAN (2022) MA WEB-DL 1080p Latino

    1h 42m 2022

    Descargar M3GAN (2022) MA WEB-DL 1080p Latino. Cuando Gemma se convierte en la cuidadora de su sobrina...

    Director: Stephen W. Moore

    Género: Ciencia ficción

    Actores: Violet McGraw

descargar The Matrix (1999) REMUX 1080p Latino Full 1080p 1080p gratis, The Matrix (1999) REMUX 1080p Latino Full 1080p mega 1 link, The Matrix (1999) REMUX 1080p Latino Full 1080p pelicula completa, descargar The Matrix (1999) REMUX 1080p Latino Full 1080p gratis en mega.

The Matrix (1999) REMUX 1080p Latino pelicula full hd, The Matrix (1999) REMUX 1080p Latino mega latino, The Matrix (1999) REMUX 1080p Latino 4k latino, The Matrix (1999) REMUX 1080p Latino pelicula completa, The Matrix (1999) REMUX 1080p Latino descargar gratis, descargar The Matrix (1999) REMUX 1080p Latino pelicula latino, The Matrix (1999) REMUX 1080p Latino 1 link mega, The Matrix (1999) REMUX 1080p Latino 1 link google drive, The Matrix (1999) REMUX 1080p Latino hd 1080p latino.
Comentarios 0