×

¿Problemas para descargar con Mozilla, EDGE? Deshabilita la opción "Abrir vinculos en una pestaña nueva" tal como lo muestra ésta imagen.

The Matrix (1999) REMUX 1080p Latino – CMHDD

2.109 vistas

Información de The Matrix (1999) REMUX 1080p Latino – CMHDD

Datos de la película

  • Calidad: Full 1080p
  • Audio: Español Latino AC3 2.0 BLURAY - Ingles AC3 5.1 BLURAY
  • Subtitulos: Español Latino PGS
  • Resolución: 1920x1080p
  • Formato: MKV
  • Codec: H.264
  • Encoder: Dracarys
  • Mediainfo: Clic para Mostrar Datos Ver
  • Format                      : Matroska
    Format version              : Version 4
    File size                   : 26.4 GiB
    Duration                    : 2 h 16 min
    Overall bit rate mode       : Variable
    Overall bit rate            : 27.7 Mb/s
    Movie name                  : The Matrix (1999) REMUX 1080p Latino – CMHDD
    Encoded date                : UTC 2023-10-20 01:02:31
    Writing application         : mkvmerge v47.0.0 ('Black Flag') 64-bit
    Writing library             : libebml v1.3.10 + libmatroska v1.5.2
    Cover                       : Yes
    Attachments                 : cover.jpg

    Video
    ID                          : 1
    ID in the original source m : 4113 (0x1011)
    Format                      : AVC
    Format/Info                 : Advanced Video Codec
    Format profile              : High@L4.1
    Format settings             : CABAC / 4 Ref Frames
    Format settings, CABAC      : Yes
    Format settings, Reference  : 4 frames
    Codec ID                    : V_MPEG4/ISO/AVC
    Duration                    : 2 h 16 min
    Bit rate mode               : Variable
    Bit rate                    : 21.9 Mb/s
    Maximum bit rate            : 24.0 Mb/s
    Width                       : 1 920 pixels
    Height                      : 1 080 pixels
    Display aspect ratio        : 16:9
    Frame rate mode             : Constant
    Frame rate                  : 23.976 (24000/1001) FPS
    Color space                 : YUV
    Chroma subsampling          : 4:2:0
    Bit depth                   : 8 bits
    Scan type                   : Progressive
    Bits/(Pixel*Frame)          : 0.440
    Stream size                 : 20.8 GiB (79%)
    Default                     : Yes
    Forced                      : No
    Original source medium      : Blu-ray

    Audio #1
    ID                          : 2
    ID in the original source m : 4352 (0x1100)
    Format                      : MLP FBA 16-ch
    Format/Info                 : Meridian Lossless Packing FBA with 16-channel presentation
    Commercial name             : Dolby TrueHD with Dolby Atmos
    Codec ID                    : A_TRUEHD
    Duration                    : 2 h 16 min
    Bit rate mode               : Variable
    Bit rate                    : 4 419 kb/s
    Maximum bit rate            : 7 794 kb/s
    Channel(s)                  : 8 channels
    Channel layout              : L R C LFE Ls Rs Lb Rb
    Sampling rate               : 48.0 kHz
    Frame rate                  : 1 200.000 FPS (40 SPF)
    Compression mode            : Lossless
    Stream size                 : 4.21 GiB (16%)
    Language                    : English
    Default                     : No
    Forced                      : No
    Original source medium      : Blu-ray
    Number of dynamic objects   : 11
    Bed channel count           : 1 channel
    Bed channel configuration   : LFE

    Audio #2
    ID                          : 3
    ID in the original source m : 4352 (0x1100)
    Format                      : AC-3
    Format/Info                 : Audio Coding 3
    Commercial name             : Dolby Digital
    Format settings             : Dolby Surround EX
    Codec ID                    : A_AC3
    Duration                    : 2 h 16 min
    Bit rate mode               : Constant
    Bit rate                    : 448 kb/s
    Channel(s)                  : 6 channels
    Channel layout              : L R C LFE Ls Rs
    Sampling rate               : 48.0 kHz
    Frame rate                  : 31.250 FPS (1536 SPF)
    Compression mode            : Lossy
    Stream size                 : 437 MiB (2%)
    Language                    : English
    Service kind                : Complete Main
    Default                     : No
    Forced                      : No
    Original source medium      : Blu-ray

    Audio #3
    ID                          : 4
    ID in the original source m : 4353 (0x1101)
    Format                      : AC-3
    Format/Info                 : Audio Coding 3
    Commercial name             : Dolby Digital
    Codec ID                    : A_AC3
    Duration                    : 2 h 16 min
    Bit rate mode               : Constant
    Bit rate                    : 640 kb/s
    Channel(s)                  : 6 channels
    Channel layout              : L R C LFE Ls Rs
    Sampling rate               : 48.0 kHz
    Frame rate                  : 31.250 FPS (1536 SPF)
    Compression mode            : Lossy
    Stream size                 : 624 MiB (2%)
    Language                    : English
    Service kind                : Complete Main
    Default                     : No
    Forced                      : No
    Original source medium      : Blu-ray

    Audio #4
    ID                          : 5
    ID in the original source m : 4358 (0x1106)
    Format                      : AC-3
    Format/Info                 : Audio Coding 3
    Commercial name             : Dolby Digital
    Format settings             : Dolby Surround
    Codec ID                    : A_AC3
    Duration                    : 2 h 16 min
    Bit rate mode               : Constant
    Bit rate                    : 192 kb/s
    Channel(s)                  : 2 channels
    Channel layout              : L R
    Sampling rate               : 48.0 kHz
    Frame rate                  : 31.250 FPS (1536 SPF)
    Compression mode            : Lossy
    Delay relative to video     : 1 s 168 ms
    Stream size                 : 187 MiB (1%)
    Language                    : Spanish
    Service kind                : Complete Main
    Default                     : Yes
    Forced                      : No
    Original source medium      : Blu-ray

    Text #1
    ID                          : 6
    ID in the original source m : 4614 (0x1206)
    Format                      : PGS
    Muxing mode                 : zlib
    Codec ID                    : S_HDMV/PGS
    Codec ID/Info               : Picture based subtitle format used on BDs/HD-DVDs
    Duration                    : 2 h 15 min
    Bit rate                    : 21.9 kb/s
    Frame rate                  : 0.323 FPS
    Count of elements           : 2628
    Stream size                 : 21.2 MiB (0%)
    Language                    : Spanish
    Default                     : No
    Forced                      : No
    Original source medium      : Blu-ray

    Text #2
    ID                          : 7
    ID in the original source m : 4630 (0x1216)
    Format                      : PGS
    Muxing mode                 : zlib
    Codec ID                    : S_HDMV/PGS
    Codec ID/Info               : Picture based subtitle format used on BDs/HD-DVDs
    Duration                    : 2 h 16 min
    Bit rate                    : 48.4 kb/s
    Frame rate                  : 0.470 FPS
    Count of elements           : 3842
    Stream size                 : 47.1 MiB (0%)
    Language                    : Spanish
    Default                     : No
    Forced                      : No
    Original source medium      : Blu-ray

    Menu
    00:00:00.000                : en:Capítulo 01
    00:03:26.956                : en:Capítulo 02
    00:06:36.813                : en:Capítulo 03
    00:09:43.833                : en:Capítulo 04
    00:11:59.468                : en:Capítulo 05
    00:16:48.590                : en:Capítulo 06
    00:21:34.710                : en:Capítulo 07
    00:25:09.758                : en:Capítulo 08
    00:28:52.313                : en:Capítulo 09
    00:32:26.361                : en:Capítulo 10
    00:35:23.037                : en:Capítulo 11
    00:38:42.069                : en:Capítulo 12
    00:44:23.744                : en:Capítulo 13
    00:46:34.708                : en:Capítulo 14
    00:48:59.019                : en:Capítulo 15
    00:53:32.459                : en:Capítulo 16
    00:56:33.306                : en:Capítulo 17
    00:59:02.455                : en:Capítulo 18
    01:01:09.749                : en:Capítulo 19
    01:05:17.663                : en:Capítulo 20
    01:07:47.980                : en:Capítulo 21
    01:12:34.600                : en:Capítulo 22
    01:17:50.749                : en:Capítulo 23
    01:21:04.276                : en:Capítulo 24
    01:25:06.518                : en:Capítulo 25
    01:29:46.297                : en:Capítulo 26
    01:31:28.733                : en:Capítulo 27
    01:37:26.423                : en:Capítulo 28
    01:41:06.143                : en:Capítulo 29
    01:44:21.505                : en:Capítulo 30
    01:47:01.665                : en:Capítulo 31
    01:50:19.696                : en:Capítulo 32
    01:52:57.854                : en:Capítulo 33
    01:56:38.074                : en:Capítulo 34
    01:58:50.540                : en:Capítulo 35
    02:02:28.591                : en:Capítulo 36
    02:05:42.952                : en:Capítulo 37
    02:08:47.970                : en:Capítulo 38

     

  • Peso: 26.4 GiB

Sinopsis

Thomas Anderson lleva una doble vida: por el día es programador en una importante empresa de software, y por la noche un hacker informático llamado Neo. Su vida no volverá a ser igual cuando unos misteriosos personajes le inviten a descubrir la pregunta que no le deja dormir: ¿qué es Matrix?

Ficha técnica

Video trailer de la película

Enlaces de descarga

Rip de Bluray

Descargar The Matrix (1999) REMUX 1080p Latino – CMHDD




Aportes de DPeliculasHDmega la pass es:dpeliculashdmega.org Aportes de CinemaniaHD la pass es:cinemaniahdd.com Aportes recientes:cinemaniahdd.net
Guardado en : Acción , Ciencia ficción , Remux

Películas relacionadas

descargar The Matrix (1999) REMUX 1080p Latino – CMHDD Full 1080p 1080p gratis, The Matrix (1999) REMUX 1080p Latino – CMHDD Full 1080p mega 1 link, The Matrix (1999) REMUX 1080p Latino – CMHDD Full 1080p pelicula completa, descargar The Matrix (1999) REMUX 1080p Latino – CMHDD Full 1080p gratis en mega.

The Matrix (1999) REMUX 1080p Latino – CMHDD pelicula full hd, The Matrix (1999) REMUX 1080p Latino – CMHDD mega latino, The Matrix (1999) REMUX 1080p Latino – CMHDD 4k latino, The Matrix (1999) REMUX 1080p Latino – CMHDD pelicula completa, The Matrix (1999) REMUX 1080p Latino – CMHDD descargar gratis, descargar The Matrix (1999) REMUX 1080p Latino – CMHDD pelicula latino, The Matrix (1999) REMUX 1080p Latino – CMHDD 1 link mega, The Matrix (1999) REMUX 1080p Latino – CMHDD 1 link google drive, The Matrix (1999) REMUX 1080p Latino – CMHDD hd 1080p latino.
Comentarios 0