×

¿Problemas para descargar con Mozilla, EDGE? Deshabilita la opción "Abrir vinculos en una pestaña nueva" tal como lo muestra ésta imagen.

The Hunger Games Mockingjay Part 1 (2014) 4K REMUX HDR Latino – CMHDD

212 vistas

Información de The Hunger Games Mockingjay Part 1 (2014) 4K REMUX HDR Latino – CMHDD

Datos de la película

  • Calidad: 4K HDR
  • Audio: Se especifica abajo de la Sinopsis
  • Subtitulos: Español Latino PGS
  • Resolución: 3840x2160
  • Formato: MKV
  • Codec: HEVC
  • Encoder: Dracarys
  • Mediainfo: Clic para Mostrar Datos Ver
  • Format                      : Matroska
    Format version              : Version 4
    File size                   : 67.4 GiB
    Duration                    : 2 h 2 min
    Overall bit rate mode       : Variable
    Overall bit rate            : 78.5 Mb/s
    Movie name                  : The Hunger Games Mockingjay Part 1 (2014) 4K REMUX HDR Latino - CMHDD
    Encoded date                : UTC 2021-01-30 02:24:10
    Writing application         : mkvmerge v51.0.0 ('I Wish') 64-bit
    Writing library             : libebml v1.4.0 + libmatroska v1.6.2

    Video
    ID                          : 1
    Format                      : HEVC
    Format/Info                 : High Efficiency Video Coding
    Format profile              : Main 10@L5.1@High
    HDR format                  : SMPTE ST 2086, HDR10 compatible
    Codec ID                    : V_MPEGH/ISO/HEVC
    Duration                    : 2 h 2 min
    Bit rate                    : 73.0 Mb/s
    Width                       : 3 840 pixels
    Height                      : 2 160 pixels
    Display aspect ratio        : 16:9
    Frame rate mode             : Constant
    Frame rate                  : 23.976 (24000/1001) FPS
    Color space                 : YUV
    Chroma subsampling          : 4:2:0 (Type 2)
    Bit depth                   : 10 bits
    Bits/(Pixel*Frame)          : 0.367
    Stream size                 : 62.6 GiB (93%)
    Writing library             : ATEME Titan KFE 3.7.3 (4.7.3.1003)
    Default                     : Yes
    Forced                      : No
    Color range                 : Limited
    Color primaries             : BT.2020
    Transfer characteristics    : PQ
    Matrix coefficients         : BT.2020 non-constant
    Mastering display color pri : Display P3
    Mastering display luminance : min: 0.0000 cd/m2, max: 1000 cd/m2
    Maximum Content Light Level : 686 cd/m2
    Maximum Frame-Average Light : 230 cd/m2

    Audio #1
    ID                          : 2
    Format                      : AC-3
    Format/Info                 : Audio Coding 3
    Commercial name             : Dolby Digital
    Codec ID                    : A_AC3
    Duration                    : 2 h 2 min
    Bit rate mode               : Constant
    Bit rate                    : 640 kb/s
    Channel(s)                  : 6 channels
    Channel layout              : L R C LFE Ls Rs
    Sampling rate               : 48.0 kHz
    Frame rate                  : 31.250 FPS (1536 SPF)
    Compression mode            : Lossy
    Stream size                 : 562 MiB (1%)
    Language                    : Spanish
    Service kind                : Complete Main
    Default                     : Yes
    Forced                      : No

    Audio #2
    ID                          : 3
    Format                      : MLP FBA 16-ch
    Format/Info                 : Meridian Lossless Packing FBA with 16-channel presentation
    Commercial name             : Dolby TrueHD with Dolby Atmos
    Codec ID                    : A_TRUEHD
    Duration                    : 2 h 2 min
    Bit rate mode               : Variable
    Bit rate                    : 4 829 kb/s
    Maximum bit rate            : 8 091 kb/s
    Channel(s)                  : 8 channels
    Channel layout              : L R C LFE Ls Rs Lb Rb
    Sampling rate               : 48.0 kHz
    Frame rate                  : 1 200.000 FPS (40 SPF)
    Compression mode            : Lossless
    Delay relative to video     : -1 ms
    Stream size                 : 4.14 GiB (6%)
    Language                    : English
    Default                     : No
    Forced                      : No
    Number of dynamic objects   : 11
    Bed channel count           : 1 channel
    Bed channel configuration   : LFE

    Text
    ID                          : 4
    Format                      : PGS
    Muxing mode                 : zlib
    Codec ID                    : S_HDMV/PGS
    Codec ID/Info               : Picture based subtitle format used on BDs/HD-DVDs
    Duration                    : 1 h 50 min
    Bit rate                    : 33.7 kb/s
    Count of elements           : 2482
    Stream size                 : 26.6 MiB (0%)
    Language                    : Spanish
    Default                     : No
    Forced                      : No

  • Peso: 67.4 GiB

Sinopsis

Katniss Everdeen se encuentra en el Distrito 13 después de destrozar los Juegos para siempre. Bajo el liderazgo de la comandante Coin y el consejo de sus amigos más leales, Katniss extiende sus alas mientras lucha por salvar a Peeta Mellark y a una nación alentada por su valentía… Tercera y última entrega de la saga literaria «Los juegos del hambre» de Suzanne Collins, que se divide en dos películas.

 

Latino: AC3 5.1 – Ingles: TrueHD 7.1

Ficha técnica

Video trailer de la película

Enlaces de descarga

Rip de Bluray

Descargar The Hunger Games Mockingjay Part 1 (2014) 4K REMUX HDR Latino – CMHDD


Aportes de DPeliculasHDmega la pass es:dpeliculashdmega.org Aportes de CinemaniaHD la pass es:cinemaniahdd.com

Películas relacionadas

descargar The Hunger Games Mockingjay Part 1 (2014) 4K REMUX HDR Latino – CMHDD 4K HDR 1080p gratis, The Hunger Games Mockingjay Part 1 (2014) 4K REMUX HDR Latino – CMHDD 4K HDR mega 1 link, The Hunger Games Mockingjay Part 1 (2014) 4K REMUX HDR Latino – CMHDD 4K HDR pelicula completa, descargar The Hunger Games Mockingjay Part 1 (2014) 4K REMUX HDR Latino – CMHDD 4K HDR gratis en mega.

The Hunger Games Mockingjay Part 1 (2014) 4K REMUX HDR Latino – CMHDD pelicula full hd, The Hunger Games Mockingjay Part 1 (2014) 4K REMUX HDR Latino – CMHDD mega latino, The Hunger Games Mockingjay Part 1 (2014) 4K REMUX HDR Latino – CMHDD 4k latino, The Hunger Games Mockingjay Part 1 (2014) 4K REMUX HDR Latino – CMHDD pelicula completa, The Hunger Games Mockingjay Part 1 (2014) 4K REMUX HDR Latino – CMHDD descargar gratis, descargar The Hunger Games Mockingjay Part 1 (2014) 4K REMUX HDR Latino – CMHDD pelicula latino, The Hunger Games Mockingjay Part 1 (2014) 4K REMUX HDR Latino – CMHDD 1 link mega, The Hunger Games Mockingjay Part 1 (2014) 4K REMUX HDR Latino – CMHDD 1 link google drive, The Hunger Games Mockingjay Part 1 (2014) 4K REMUX HDR Latino – CMHDD hd 1080p latino.