×

¿Problemas para descargar con Mozilla, EDGE? Deshabilita la opción "Abrir vinculos en una pestaña nueva" tal como lo muestra ésta imagen.

The Hobbit The Battle of the Five Armies (2014) [EXTENDED] REMUX 4K HDR Latino – CMHDD

720 vistas

Información de The Hobbit The Battle of the Five Armies (2014) [EXTENDED] REMUX 4K HDR Latino – CMHDD

Datos de la película

  • Calidad: 4K HDR
  • Audio: Se especifica abajo de la Sinopsis
  • Subtitulos: Español Latino SRT
  • Resolución: 3840x2160p
  • Formato: MKV
  • Codec: H.264
  • Encoder: Dracarys
  • Mediainfo: Clic para Mostrar Datos Ver
  • Format                      : Matroska
    Format version              : Version 4
    File size                   : 59.6 GiB
    Duration                    : 2 h 44 min
    Overall bit rate mode       : Variable
    Overall bit rate            : 52.0 Mb/s
    Movie name                  : The Hobbit: The Battle of the Five Armies (2014) [EXTENDED] REMUX 4K HDR Latino - CMHDD
    Encoded date                : UTC 2022-02-13 00:02:49
    Writing application         : mkvmerge v17.0.0 ('Be Ur Friend') 64-bit
    Writing library             : libebml v1.3.5 + libmatroska v1.4.8
    Cover                       : Yes
    Attachments                 : cover.jpg

    Video
    ID                          : 1
    Format                      : HEVC
    Format/Info                 : High Efficiency Video Coding
    Format profile              : Main 10@L5.1@High
    HDR format                  : SMPTE ST 2086, HDR10 compatible
    Codec ID                    : V_MPEGH/ISO/HEVC
    Duration                    : 2 h 44 min
    Bit rate                    : 47.9 Mb/s
    Width                       : 3 840 pixels
    Height                      : 2 160 pixels
    Display aspect ratio        : 16:9
    Frame rate mode             : Constant
    Frame rate                  : 23.976 (24000/1001) FPS
    Color space                 : YUV
    Chroma subsampling          : 4:2:0 (Type 2)
    Bit depth                   : 10 bits
    Bits/(Pixel*Frame)          : 0.241
    Stream size                 : 54.8 GiB (92%)
    Default                     : Yes
    Forced                      : No
    Color range                 : Limited
    Color primaries             : BT.2020
    Transfer characteristics    : PQ
    Matrix coefficients         : BT.2020 non-constant
    Mastering display color pri : Display P3
    Mastering display luminance : min: 0.0050 cd/m2, max: 4000 cd/m2
    Maximum Content Light Level : 1163 cd/m2
    Maximum Frame-Average Light : 162 cd/m2

    Audio #1
    ID                          : 2
    Format                      : AC-3
    Format/Info                 : Audio Coding 3
    Commercial name             : Dolby Digital
    Codec ID                    : A_AC3
    Duration                    : 2 h 44 min
    Bit rate mode               : Constant
    Bit rate                    : 448 kb/s
    Channel(s)                  : 6 channels
    Channel layout              : L R C LFE Ls Rs
    Sampling rate               : 48.0 kHz
    Frame rate                  : 31.250 FPS (1536 SPF)
    Compression mode            : Lossy
    Stream size                 : 526 MiB (1%)
    Language                    : Spanish
    Service kind                : Complete Main
    Default                     : Yes
    Forced                      : No

    Audio #2
    ID                          : 3
    Format                      : MLP FBA 16-ch
    Format/Info                 : Meridian Lossless Packing FBA with 16-channel presentation
    Commercial name             : Dolby TrueHD with Dolby Atmos
    Codec ID                    : A_TRUEHD
    Duration                    : 2 h 44 min
    Bit rate mode               : Variable
    Bit rate                    : 3 198 kb/s
    Maximum bit rate            : 4 902 kb/s
    Channel(s)                  : 8 channels
    Channel layout              : L R C LFE Ls Rs Lb Rb
    Sampling rate               : 48.0 kHz
    Frame rate                  : 1 200.000 FPS (40 SPF)
    Compression mode            : Lossless
    Stream size                 : 3.66 GiB (6%)
    Language                    : English
    Default                     : No
    Forced                      : No
    Number of dynamic objects   : 11
    Bed channel count           : 1 channel
    Bed channel configuration   : LFE

    Audio #3
    ID                          : 4
    Format                      : AC-3
    Format/Info                 : Audio Coding 3
    Commercial name             : Dolby Digital
    Format settings             : Dolby Surround EX
    Codec ID                    : A_AC3
    Duration                    : 2 h 44 min
    Bit rate mode               : Constant
    Bit rate                    : 448 kb/s
    Channel(s)                  : 6 channels
    Channel layout              : L R C LFE Ls Rs
    Sampling rate               : 48.0 kHz
    Frame rate                  : 31.250 FPS (1536 SPF)
    Compression mode            : Lossy
    Stream size                 : 526 MiB (1%)
    Language                    : English
    Service kind                : Complete Main
    Default                     : No
    Forced                      : No

    Text #1
    ID                          : 5
    Format                      : PGS
    Muxing mode                 : zlib
    Codec ID                    : S_HDMV/PGS
    Codec ID/Info               : Picture based subtitle format used on BDs/HD-DVDs
    Duration                    : 2 h 43 min
    Bit rate                    : 17.6 kb/s
    Count of elements           : 3086
    Stream size                 : 20.5 MiB (0%)
    Language                    : Spanish
    Default                     : No
    Forced                      : No

    Text #2
    ID                          : 6
    Format                      : UTF-8
    Codec ID                    : S_TEXT/UTF8
    Codec ID/Info               : UTF-8 Plain Text
    Duration                    : 2 h 43 min
    Bit rate                    : 2 b/s
    Count of elements           : 87
    Stream size                 : 2.55 KiB (0%)
    Language                    : Spanish
    Default                     : Yes
    Forced                      : No

    Menu
    00:00:00.000                : en:Capítulo 01
    00:05:12.353                : en:Capítulo 02
    00:12:47.016                : en:Capítulo 03
    00:13:19.256                : en:Capítulo 04
    00:18:57.386                : en:Capítulo 05
    00:23:42.129                : en:Capítulo 06
    00:24:56.119                : en:Capítulo 07
    00:26:04.521                : en:Capítulo 08
    00:27:32.984                : en:Capítulo 09
    00:35:45.643                : en:Capítulo 10
    00:36:41.240                : en:Capítulo 11
    00:40:41.856                : en:Capítulo 12
    00:42:01.101                : en:Capítulo 13
    00:43:11.714                : en:Capítulo 14
    00:46:16.106                : en:Capítulo 15
    00:51:27.626                : en:Capítulo 16
    00:54:57.919                : en:Capítulo 17
    00:56:14.788                : en:Capítulo 18
    00:58:31.257                : en:Capítulo 19
    01:00:26.914                : en:Capítulo 20
    01:02:43.551                : en:Capítulo 21
    01:06:10.132                : en:Capítulo 22
    01:12:23.255                : en:Capítulo 23
    01:17:22.512                : en:Capítulo 24
    01:20:36.289                : en:Capítulo 25
    01:24:57.175                : en:Capítulo 26
    01:28:41.733                : en:Capítulo 27
    01:30:52.238                : en:Capítulo 28
    01:33:02.118                : en:Capítulo 29
    01:35:12.790                : en:Capítulo 30
    01:38:32.448                : en:Capítulo 31
    01:39:42.851                : en:Capítulo 32
    01:41:00.554                : en:Capítulo 33
    01:45:03.463                : en:Capítulo 34
    01:47:13.593                : en:Capítulo 35
    01:49:05.247                : en:Capítulo 36
    01:50:02.971                : en:Capítulo 37
    01:52:59.564                : en:Capítulo 38
    01:53:51.241                : en:Capítulo 39
    01:57:15.194                : en:Capítulo 40
    02:05:38.531                : en:Capítulo 41
    02:12:07.002                : en:Capítulo 42
    02:15:26.201                : en:Capítulo 43
    02:18:32.470                : en:Capítulo 44
    02:20:07.399                : en:Capítulo 45
    02:22:27.163                : en:Capítulo 46
    02:26:11.554                : en:Capítulo 47
    02:30:54.420                : en:Capítulo 48

  • Peso: 59.6 GiB

Sinopsis

Después de haber recuperado el reino del Dragón Smaug, la Compañía ha desencadenado, sin querer, una potencia maligna. Un Smaug enfurecido vuela hacia la Ciudad del Lago para acabar con cualquier resto de vida. Obsesionado sobre todo con el reino recuperado, Thorin sacrifica la amistad y el honor para mantenerlo mientras que Bilbo intenta frenéticamente hacerle ver la razón por la que el hobbit toma una decisión desesperada y peligrosa. Pero hay aún mayores peligros por delante. Sin la ayuda aparente del mago Gandalf, su gran enemigo Sauron ha enviado legiones de orcos hacia la Montaña Solitaria en un ataque furtivo. Cuando la oscuridad se cierna sobre ellos, las razas de los Enanos, Elfos y Hombres deben decidir si unirse o ser destruidos. Bilbo se encontrará así en la batalla épica de los Cinco Ejércitos, donde el futuro de la Tierra Media está en juego.

 

Latino: AC3 5.1  –  Inglés: TrueHD 7.1

Ficha técnica

Video trailer de la película

Enlaces de descarga

Rip de Bluray

Descargar The Hobbit The Battle of the Five Armies (2014) [EXTENDED] REMUX 4K HDR Latino – CMHDD


Aportes de DPeliculasHDmega la pass es:dpeliculashdmega.org Aportes de CinemaniaHD la pass es:cinemaniahdd.com
Guardado en : Acción , Aventura , Fantasía

Películas relacionadas

  • Shotgun Wedding (2022) AMZN WEB-DL 1080p Latino

    Shotgun Wedding (2022) AMZN WEB-DL 1080p Latino

    2022
    Shotgun Wedding (2022) AMZN WEB-DL 1080p Latino

    1h 41m 2022

    Darcy y Tom reúnen a sus familias para la boda de destino definitiva, pero cuando toman como rehenes...

    Director: Jason Moore

    Género: Acción

    Actores: Steve Coulter

  • Mar de sangre (2022) WEB-DL 1080p Latino

    Mar de sangre (2022) WEB-DL 1080p Latino

    2022
    Mar de sangre (2022) WEB-DL 1080p Latino

    1h 27m 2022

    Descargar Mar de sangre (2022) WEB-DL 1080p Latino. Un grupo de amigos que disfrutan de un fin de semana...

    Director: James Nunn

    Género: Acción

    Actores: Thomas Michael Flynn

  • Noche sin paz (2022) PLACEBO Full HD 1080p Latino

    Noche sin paz (2022) PLACEBO Full HD 1080p Latino

    2022
    Noche sin paz (2022) PLACEBO Full HD 1080p Latino

    1h 41m 2022

    Descargar Noche sin paz (2022) PLACEBO Full HD 1080p Latino. Cuando un equipo de mercenarios irrumpe...

    Director: Tyshana Hobson

    Género: Acción

    Actores: Yoon Cha-Lee

  • Noche sin paz (2022) HD 1080p Latino

    Noche sin paz (2022) HD 1080p Latino

    2022
    Noche sin paz (2022) HD 1080p Latino

    1h 41m 2022

    Descargar Noche sin paz (2022) HD 1080p Latino. Cuando un equipo de mercenarios irrumpe en Nochebuena...

    Director: Tyshana Hobson

    Género: Acción

    Actores: Yoon Cha-Lee

descargar The Hobbit The Battle of the Five Armies (2014) [EXTENDED] REMUX 4K HDR Latino – CMHDD 4K HDR 1080p gratis, The Hobbit The Battle of the Five Armies (2014) [EXTENDED] REMUX 4K HDR Latino – CMHDD 4K HDR mega 1 link, The Hobbit The Battle of the Five Armies (2014) [EXTENDED] REMUX 4K HDR Latino – CMHDD 4K HDR pelicula completa, descargar The Hobbit The Battle of the Five Armies (2014) [EXTENDED] REMUX 4K HDR Latino – CMHDD 4K HDR gratis en mega.

The Hobbit The Battle of the Five Armies (2014) [EXTENDED] REMUX 4K HDR Latino – CMHDD pelicula full hd, The Hobbit The Battle of the Five Armies (2014) [EXTENDED] REMUX 4K HDR Latino – CMHDD mega latino, The Hobbit The Battle of the Five Armies (2014) [EXTENDED] REMUX 4K HDR Latino – CMHDD 4k latino, The Hobbit The Battle of the Five Armies (2014) [EXTENDED] REMUX 4K HDR Latino – CMHDD pelicula completa, The Hobbit The Battle of the Five Armies (2014) [EXTENDED] REMUX 4K HDR Latino – CMHDD descargar gratis, descargar The Hobbit The Battle of the Five Armies (2014) [EXTENDED] REMUX 4K HDR Latino – CMHDD pelicula latino, The Hobbit The Battle of the Five Armies (2014) [EXTENDED] REMUX 4K HDR Latino – CMHDD 1 link mega, The Hobbit The Battle of the Five Armies (2014) [EXTENDED] REMUX 4K HDR Latino – CMHDD 1 link google drive, The Hobbit The Battle of the Five Armies (2014) [EXTENDED] REMUX 4K HDR Latino – CMHDD hd 1080p latino.
Comentarios 0