×

¿Problemas para descargar con Mozilla, EDGE? Deshabilita la opción "Abrir vinculos en una pestaña nueva" tal como lo muestra ésta imagen.

The Cable Guy (1996) REMUX 1080p Latino – CMHDD

126 vistas

Información de The Cable Guy (1996) REMUX 1080p Latino – CMHDD

Datos de la película

  • Calidad: Full 1080p
  • Audio: Español Latino AC3 5.1 BLURAY - Ingles DTS 5.1 BLURAY
  • Subtitulos: Español Latino PGS
  • Resolución: 1920x1080p
  • Formato: MKV
  • Codec: H.264
  • Encoder: Dracarys
  • Mediainfo: Clic para Mostrar Datos Ver
  • Format                      : Matroska
    Format version              : Version 4
    File size                   : 19.6 GiB
    Duration                    : 1 h 35 min
    Overall bit rate mode       : Variable
    Overall bit rate            : 29.3 Mb/s
    Movie name                  : The Cable Guy (1996) REMUX 1080p Latino - CMHDD
    Encoded date                : UTC 2023-08-26 22:16:50
    Writing application         : mkvmerge v47.0.0 ('Black Flag') 64-bit
    Writing library             : libebml v1.3.10 + libmatroska v1.5.2
    Cover                       : Yes
    Attachments                 : cover.jpg

    Video
    ID                          : 1
    ID in the original source m : 4113 (0x1011)
    Format                      : AVC
    Format/Info                 : Advanced Video Codec
    Format profile              : High@L4.1
    Format settings             : CABAC / 2 Ref Frames
    Format settings, CABAC      : Yes
    Format settings, Reference  : 2 frames
    Codec ID                    : V_MPEG4/ISO/AVC
    Duration                    : 1 h 35 min
    Bit rate mode               : Variable
    Bit rate                    : 25.0 Mb/s
    Width                       : 1 920 pixels
    Height                      : 1 080 pixels
    Display aspect ratio        : 16:9
    Frame rate mode             : Constant
    Frame rate                  : 23.976 (24000/1001) FPS
    Color space                 : YUV
    Chroma subsampling          : 4:2:0
    Bit depth                   : 8 bits
    Scan type                   : Progressive
    Bits/(Pixel*Frame)          : 0.502
    Stream size                 : 16.7 GiB (85%)
    Default                     : Yes
    Forced                      : No
    Original source medium      : Blu-ray

    Audio #1
    ID                          : 2
    ID in the original source m : 4352 (0x1100)
    Format                      : DTS XLL
    Format/Info                 : Digital Theater Systems
    Commercial name             : DTS-HD Master Audio
    Codec ID                    : A_DTS
    Duration                    : 1 h 35 min
    Bit rate mode               : Variable
    Bit rate                    : 3 692 kb/s
    Channel(s)                  : 6 channels
    Channel layout              : C L R Ls Rs LFE
    Sampling rate               : 48.0 kHz
    Frame rate                  : 93.750 FPS (512 SPF)
    Bit depth                   : 24 bits
    Compression mode            : Lossless
    Stream size                 : 2.47 GiB (13%)
    Language                    : English
    Default                     : No
    Forced                      : No
    Original source medium      : Blu-ray

    Audio #2
    ID                          : 3
    ID in the original source m : 4354 (0x1102)
    Format                      : AC-3
    Format/Info                 : Audio Coding 3
    Commercial name             : Dolby Digital
    Codec ID                    : A_AC3
    Duration                    : 1 h 35 min
    Bit rate mode               : Constant
    Bit rate                    : 640 kb/s
    Channel(s)                  : 6 channels
    Channel layout              : L R C LFE Ls Rs
    Sampling rate               : 48.0 kHz
    Frame rate                  : 31.250 FPS (1536 SPF)
    Compression mode            : Lossy
    Stream size                 : 438 MiB (2%)
    Language                    : Spanish
    Service kind                : Complete Main
    Default                     : Yes
    Forced                      : No
    Original source medium      : Blu-ray

    Text
    ID                          : 4
    ID in the original source m : 4611 (0x1203)
    Format                      : PGS
    Muxing mode                 : zlib
    Codec ID                    : S_HDMV/PGS
    Codec ID/Info               : Picture based subtitle format used on BDs/HD-DVDs
    Duration                    : 1 h 30 min
    Bit rate                    : 33.8 kb/s
    Frame rate                  : 0.476 FPS
    Count of elements           : 2588
    Stream size                 : 21.9 MiB (0%)
    Language                    : Spanish
    Default                     : No
    Forced                      : No
    Original source medium      : Blu-ray

    Menu
    00:00:00.000                : en:Capítulo 01
    00:04:08.206                : en:Capítulo 02
    00:11:00.117                : en:Capítulo 03
    00:17:48.484                : en:Capítulo 04
    00:23:36.081                : en:Capítulo 05
    00:29:40.820                : en:Capítulo 06
    00:37:31.791                : en:Capítulo 07
    00:44:38.550                : en:Capítulo 08
    00:50:20.142                : en:Capítulo 09
    00:55:16.354                : en:Capítulo 10
    01:02:09.392                : en:Capítulo 11
    01:08:01.452                : en:Capítulo 12
    01:15:11.840                : en:Capítulo 13
    01:20:14.100                : en:Capítulo 14
    01:23:23.039                : en:Capítulo 15
    01:29:43.836                : en:Capítulo 16

  • Peso: 19.6 GiB

Sinopsis

Un instalador del cable, llamado Ernie «Chip» Douglas, atiende a Steven Kovacs, que acaba de mudarse tras cortar con Robin, su novia. Durante la instalación en la nueva casa, Chip y Steven traban amistad. Al principio todo va bien, y Steven vuelve con Robin, pero Chip se toma la amistad muy en serio, convirtiéndose en un neurótico acosador. Y, para desgracia de Steven, Chip cae bien a todos los de su círculo familiar, incluso a su novia y los logra manipular a tal punto que hace ver a Steven como un perfecto insoportable y a sí mismo como a la víctima de los arranques de ira de Steven.

Ficha técnica

Video trailer de la película

Enlaces de descarga

Rip de Bluray

Descargar The Cable Guy (1996) REMUX 1080p Latino – CMHDD


Aportes de DPeliculasHDmega la pass es:dpeliculashdmega.org Aportes de CinemaniaHD la pass es:cinemaniahdd.com Aportes recientes:cinemaniahdd.net
Guardado en : Comedia , Drama , Suspenso

Películas relacionadas

descargar The Cable Guy (1996) REMUX 1080p Latino – CMHDD Full 1080p 1080p gratis, The Cable Guy (1996) REMUX 1080p Latino – CMHDD Full 1080p mega 1 link, The Cable Guy (1996) REMUX 1080p Latino – CMHDD Full 1080p pelicula completa, descargar The Cable Guy (1996) REMUX 1080p Latino – CMHDD Full 1080p gratis en mega.

The Cable Guy (1996) REMUX 1080p Latino – CMHDD pelicula full hd, The Cable Guy (1996) REMUX 1080p Latino – CMHDD mega latino, The Cable Guy (1996) REMUX 1080p Latino – CMHDD 4k latino, The Cable Guy (1996) REMUX 1080p Latino – CMHDD pelicula completa, The Cable Guy (1996) REMUX 1080p Latino – CMHDD descargar gratis, descargar The Cable Guy (1996) REMUX 1080p Latino – CMHDD pelicula latino, The Cable Guy (1996) REMUX 1080p Latino – CMHDD 1 link mega, The Cable Guy (1996) REMUX 1080p Latino – CMHDD 1 link google drive, The Cable Guy (1996) REMUX 1080p Latino – CMHDD hd 1080p latino.
Comentarios 0