×

¿Problemas para descargar con Mozilla, EDGE? Deshabilita la opción "Abrir vinculos en una pestaña nueva" tal como lo muestra ésta imagen.

El Artista (2011) REMUX 1080p SUB

177 vistas

Información de El Artista (2011) REMUX 1080p SUB

Datos de la película

  • Calidad: Full 1080p
  • Audio: Ingles DTS 5.1 BLURAY
  • Subtitulos: Español Latino SRT
  • Resolución: 1920x1080p
  • Formato: MKV
  • Codec: H.264
  • Encoder: CinefiloCool
  • Mediainfo: Clic para Mostrar Datos Ver
  • El Artista (2011) REMUX 1080p SUB-CMHDD.mkv
    Format                      : Matroska
    Format version              : Version 4
    File size                   : 22.1 GiB
    Duration                    : 1 h 40 min
    Overall bit rate mode       : Variable
    Overall bit rate            : 31.4 Mb/s
    Movie name                  : The Artist (2011) CinemaniaHDD.Net
    Encoded date                : UTC 2022-01-18 18:10:21
    Writing application         : mkvmerge v56.1.0 ('My Friend') 64-bit
    Writing library             : libebml v1.4.2 + libmatroska v1.6.4
    Attachments                 : CINEMANIAHD.png

    Video
    ID                          : 1
    Format                      : AVC
    Format/Info                 : Advanced Video Codec
    Format profile              : High@L4.1
    Format settings             : CABAC / 2 Ref Frames
    Format settings, CABAC      : Yes
    Format settings, Reference  : 2 frames
    Codec ID                    : V_MPEG4/ISO/AVC
    Duration                    : 1 h 40 min
    Bit rate mode               : Variable
    Bit rate                    : 29.6 Mb/s
    Width                       : 1 920 pixels
    Height                      : 1 080 pixels
    Display aspect ratio        : 16:9
    Frame rate mode             : Constant
    Frame rate                  : 23.976 (24000/1001) FPS
    Color space                 : YUV
    Chroma subsampling          : 4:2:0
    Bit depth                   : 8 bits
    Scan type                   : Progressive
    Bits/(Pixel*Frame)          : 0.596
    Stream size                 : 20.8 GiB (94%)
    Title                       : REMUX HD1080p [CinemaniaHDD]
    Default                     : Yes
    Forced                      : No

    Audio
    ID                          : 2
    Format                      : DTS XLL
    Format/Info                 : Digital Theater Systems
    Commercial name             : DTS-HD Master Audio
    Codec ID                    : A_DTS
    Duration                    : 1 h 40 min
    Bit rate mode               : Variable
    Bit rate                    : 1 831 kb/s
    Channel(s)                  : 6 channels
    Channel layout              : C L R Ls Rs LFE
    Sampling rate               : 48.0 kHz
    Frame rate                  : 93.750 FPS (512 SPF)
    Bit depth                   : 16 bits
    Compression mode            : Lossless
    Stream size                 : 1.28 GiB (6%)
    Title                       : Ingles [CinemaniaHDD]
    Language                    : English
    Default                     : Yes
    Forced                      : Yes

    Text
    ID                          : 3
    Format                      : UTF-8
    Codec ID                    : S_TEXT/UTF8
    Codec ID/Info               : UTF-8 Plain Text
    Duration                    : 1 h 38 min
    Bit rate                    : 7 b/s
    Count of elements           : 152
    Stream size                 : 5.41 KiB (0%)
    Title                       : Español-SRT [CinemaniaHDD]
    Language                    : Spanish
    Default                     : Yes
    Forced                      : Yes

    Menu
    00:00:00.000                : :Chapter 01
    00:01:56.491                : :Chapter 02
    00:05:30.664                : :Chapter 03
    00:09:48.880                : :Chapter 04
    00:15:14.497                : :Chapter 05
    00:26:01.268                : :Chapter 06
    00:33:09.279                : :Chapter 07
    00:39:46.009                : :Chapter 08
    00:46:21.404                : :Chapter 09
    00:53:58.360                : :Chapter 10
    01:03:38.440                : :Chapter 11
    01:13:25.067                : :Chapter 12
    01:21:28.092                : :Chapter 13
    01:26:04.868                : :Chapter 14
    01:33:51.709                : :Chapter 15
    01:37:20.334                : :Chapter 16

  • Peso: 22.1 GiB

Sinopsis

Descargar El Artista (2011) REMUX 1080p SUB. Hollywood 1927. George Valentin es una gran estrella del cine mudo a quien la vida sonríe. Pero la llegada del cine sonoro le conducirá al olvido. Por su parte Peppy Miller, una joven actriz, verá impulsada su carrera a lo más alto, al firmamento de las estrellas.

Disponible Solo Para VIP!!! 

Ficha técnica

Video trailer de la película

Enlaces de descarga

Rip de Bluray

Descargar El Artista (2011) REMUX 1080p SUB


Aportes de DPeliculasHDmega la pass es:dpeliculashdmega.org Aportes de CinemaniaHD la pass es:cinemaniahdd.com
Guardado en : Comedia , Drama , Remux , Romance

Películas relacionadas

descargar El Artista (2011) REMUX 1080p SUB Full 1080p 1080p gratis, El Artista (2011) REMUX 1080p SUB Full 1080p mega 1 link, El Artista (2011) REMUX 1080p SUB Full 1080p pelicula completa, descargar El Artista (2011) REMUX 1080p SUB Full 1080p gratis en mega.

El Artista (2011) REMUX 1080p SUB pelicula full hd, El Artista (2011) REMUX 1080p SUB mega latino, El Artista (2011) REMUX 1080p SUB 4k latino, El Artista (2011) REMUX 1080p SUB pelicula completa, El Artista (2011) REMUX 1080p SUB descargar gratis, descargar El Artista (2011) REMUX 1080p SUB pelicula latino, El Artista (2011) REMUX 1080p SUB 1 link mega, El Artista (2011) REMUX 1080p SUB 1 link google drive, El Artista (2011) REMUX 1080p SUB hd 1080p latino.
Comentarios 0