×

¿Problemas para descargar con Mozilla, EDGE? Deshabilita la opción "Abrir vinculos en una pestaña nueva" tal como lo muestra ésta imagen.

El Artista (2011) Full HD 1080p SUB

283 vistas

Información de El Artista (2011) Full HD 1080p SUB

Datos de la película

  • Calidad: Full 1080p
  • Audio: Ingles DTS 5.1 BLURAY
  • Subtitulos: Español Latino SRT
  • Resolución: 1920x1080p
  • Formato: MKV
  • Codec: H.264
  • Encoder: CinefiloCool
  • Mediainfo: Clic para Mostrar Datos Ver
  • El Artista (2011) Full HD 1080p SUB-CMHDD.mkv
    Format                      : Matroska
    Format version              : Version 4
    File size                   : 3.13 GiB
    Duration                    : 1 h 40 min
    Overall bit rate            : 4 459 kb/s
    Movie name                  : The Artist (2011) CinemaniaHDD.Net
    Encoded date                : UTC 2023-01-15 21:04:35
    Writing application         : mkvmerge v56.1.0 ('My Friend') 64-bit
    Writing library             : libebml v1.4.2 + libmatroska v1.6.4
    Attachments                 : CINEMANIAHD.png

    Video
    ID                          : 1
    Format                      : AVC
    Format/Info                 : Advanced Video Codec
    Format profile              : High@L4.1
    Format settings             : CABAC / 4 Ref Frames
    Format settings, CABAC      : Yes
    Format settings, Reference  : 4 frames
    Codec ID                    : V_MPEG4/ISO/AVC
    Duration                    : 1 h 40 min
    Bit rate                    : 2 948 kb/s
    Width                       : 1 920 pixels
    Height                      : 1 080 pixels
    Display aspect ratio        : 16:9
    Frame rate mode             : Constant
    Frame rate                  : 23.976 (24000/1001) FPS
    Color space                 : YUV
    Chroma subsampling          : 4:2:0
    Bit depth                   : 8 bits
    Scan type                   : Progressive
    Bits/(Pixel*Frame)          : 0.059
    Stream size                 : 2.07 GiB (66%)
    Title                       : Full HD1080p [CinemaniaHDD]
    Writing library             : x264 core 163 r3059 b684ebe0
    Encoding settings           : cabac=1 / ref=4 / deblock=1:0:0 / analyse=0x3:0x133 / me=tesa / subme=11 / psy=1 / psy_rd=1.00:0.00 / mixed_ref=1 / me_range=24 / chroma_me=1 / trellis=2 / 8x8dct=1 / cqm=0 / deadzone=21,11 / fast_pskip=0 / chroma_qp_offset=-2 / threads=24 / lookahead_threads=6 / sliced_threads=0 / nr=0 / decimate=1 / interlaced=0 / bluray_compat=0 / constrained_intra=0 / bframes=16 / b_pyramid=2 / b_adapt=2 / b_bias=0 / direct=3 / weightb=1 / open_gop=0 / weightp=2 / keyint=240 / keyint_min=24 / scenecut=40 / intra_refresh=0 / rc_lookahead=60 / rc=crf / mbtree=1 / crf=20.0 / qcomp=0.60 / qpmin=0 / qpmax=69 / qpstep=4 / vbv_maxrate=62500 / vbv_bufsize=78125 / crf_max=0.0 / nal_hrd=none / filler=0 / ip_ratio=1.40 / aq=1:1.00
    Default                     : Yes
    Forced                      : Yes
    Color range                 : Limited
    Color primaries             : BT.709
    Transfer characteristics    : BT.709
    Matrix coefficients         : BT.709

    Audio
    ID                          : 2
    Format                      : DTS
    Format/Info                 : Digital Theater Systems
    Codec ID                    : A_DTS
    Duration                    : 1 h 40 min
    Bit rate mode               : Constant
    Bit rate                    : 1 509 kb/s
    Channel(s)                  : 6 channels
    Channel layout              : C L R Ls Rs LFE
    Sampling rate               : 48.0 kHz
    Frame rate                  : 93.750 FPS (512 SPF)
    Bit depth                   : 24 bits
    Compression mode            : Lossy
    Stream size                 : 1.06 GiB (34%)
    Title                       : Ingles [CinemaniaHDD]
    Language                    : English
    Default                     : Yes
    Forced                      : Yes

    Text
    ID                          : 3
    Format                      : UTF-8
    Codec ID                    : S_TEXT/UTF8
    Codec ID/Info               : UTF-8 Plain Text
    Duration                    : 1 h 38 min
    Bit rate                    : 7 b/s
    Count of elements           : 152
    Stream size                 : 5.41 KiB (0%)
    Title                       : Español-SRT [CinemaniaHDD]
    Language                    : Spanish
    Default                     : Yes
    Forced                      : Yes

    Menu
    00:00:00.000                : :Chapter 01
    00:01:56.491                : :Chapter 02
    00:05:30.664                : :Chapter 03
    00:09:48.880                : :Chapter 04
    00:15:14.497                : :Chapter 05
    00:26:01.268                : :Chapter 06
    00:33:09.279                : :Chapter 07
    00:39:46.009                : :Chapter 08
    00:46:21.404                : :Chapter 09
    00:53:58.360                : :Chapter 10
    01:03:38.440                : :Chapter 11
    01:13:25.067                : :Chapter 12
    01:21:28.092                : :Chapter 13
    01:26:04.868                : :Chapter 14
    01:33:51.709                : :Chapter 15
    01:37:20.334                : :Chapter 16

  • Peso: 3.13 GiB

Sinopsis

Descargar El Artista (2011) Full HD 1080p SUB. Hollywood 1927. George Valentin es una gran estrella del cine mudo a quien la vida sonríe. Pero la llegada del cine sonoro le conducirá al olvido. Por su parte Peppy Miller, una joven actriz, verá impulsada su carrera a lo más alto, al firmamento de las estrellas.

Ficha técnica

Video trailer de la película

Enlaces de descarga

Rip de Bluray

Descargar El Artista (2011) Full HD 1080p SUB




Aportes de DPeliculasHDmega la pass es:dpeliculashdmega.org Aportes de CinemaniaHD la pass es:cinemaniahdd.com Aportes recientes:cinemaniahdd.net

Películas relacionadas

  • Fear (2023) AMZN WEB-DL 1080p Latino

    Fear (2023) AMZN WEB-DL 1080p Latino

    2023
    Fear (2023) AMZN WEB-DL 1080p Latino

    1h 38m 2023

    Una escapada muy necesaria y un fin de semana de celebración se convierte en una pesadilla debido a...

    Director: Deon Taylor

    Género: Drama

    Actores: Whylip Lee

  • Chucky (2023) Temporada 3 WEB-DL 1080p Latino

    Chucky (2023) Temporada 3 WEB-DL 1080p Latino

    2021
    Chucky (2023) Temporada 3 WEB-DL 1080p Latino

    0h 42m 2021

    El infame Chucky se abre paso a cuchilladas hacia la televisión en una nueva y mortífera serie escrita...

    Director: Nick Antosca

    Género: Crimen

    Actores: Zackary Arthur

  • Good Burger 2 (2023) HD 1080p Latino

    Good Burger 2 (2023) HD 1080p Latino

    2023
    Good Burger 2 (2023) HD 1080p Latino

    1h 31m 2023

    Descargar Good Burger 2 (2023) HD 1080p Latino. Después de que su último invento falla, Ed le da la...

    Director: Ross Novie

    Género: Comedia

    Actores: Zoe Saldana

descargar El Artista (2011) Full HD 1080p SUB Full 1080p 1080p gratis, El Artista (2011) Full HD 1080p SUB Full 1080p mega 1 link, El Artista (2011) Full HD 1080p SUB Full 1080p pelicula completa, descargar El Artista (2011) Full HD 1080p SUB Full 1080p gratis en mega.

El Artista (2011) Full HD 1080p SUB pelicula full hd, El Artista (2011) Full HD 1080p SUB mega latino, El Artista (2011) Full HD 1080p SUB 4k latino, El Artista (2011) Full HD 1080p SUB pelicula completa, El Artista (2011) Full HD 1080p SUB descargar gratis, descargar El Artista (2011) Full HD 1080p SUB pelicula latino, El Artista (2011) Full HD 1080p SUB 1 link mega, El Artista (2011) Full HD 1080p SUB 1 link google drive, El Artista (2011) Full HD 1080p SUB hd 1080p latino.
Comentarios 0