×

¿Problemas para descargar con Mozilla, EDGE? Deshabilita la opción "Abrir vinculos en una pestaña nueva" tal como lo muestra ésta imagen.

Supergirl (2019 – 2020) Temporada 05 CW Web-DL 1080p Latino

4.043 vistas

Información de Supergirl (2019 – 2020) Temporada 05 CW Web-DL 1080p Latino

Datos de la película

  • Calidad: WEBDL
  • Audio: Se especifica abajo de la Sinopsis
  • Subtitulos: Español Latino SRT- FORZADOS SRT
  • Resolución: 1920x1080p
  • Formato: MKV
  • Codec: H.264
  • Encoder: CinefiloCool & CNMNHDD
  • Mediainfo: Clic para Mostrar Datos Ver
  • Super Girl T05E19 CW WEB-DL 1080p Latino [CNMNHDD].mkv
    Format                      : Matroska
    Format version              : Version 4
    File size                   : 1.86 GiB
    Duration                    : 42 min 19 s
    Overall bit rate mode       : Variable
    Overall bit rate            : 6 299 kb/s
    Movie name                  : Super Girl T05E19 - CinemaniaHDD.Net
    Encoded date                : UTC 2020-07-13 17:02:22
    Writing application         : mkvmerge v30.1.0 ('Forever And More') 64-bit
    Writing library             : libebml v1.3.6 + libmatroska v1.4.9 / Lavf58.28.101

    Video
    ID                          : 1
    Format                      : AVC
    Format/Info                 : Advanced Video Codec
    Format profile              : Main@L4
    Format settings             : CABAC / 3 Ref Frames
    Format settings, CABAC      : Yes
    Format settings, Reference  : 3 frames
    Codec ID                    : V_MPEG4/ISO/AVC
    Duration                    : 42 min 19 s
    Bit rate mode               : Variable
    Bit rate                    : 5 800 kb/s
    Maximum bit rate            : 8 700 kb/s
    Width                       : 1 920 pixels
    Height                      : 1 080 pixels
    Display aspect ratio        : 16:9
    Frame rate mode             : Constant
    Frame rate                  : 23.976 (24000/1001) FPS
    Color space                 : YUV
    Chroma subsampling          : 4:2:0
    Bit depth                   : 8 bits
    Scan type                   : Progressive
    Bits/(Pixel*Frame)          : 0.117
    Stream size                 : 1.71 GiB (92%)
    Title                       : CinemaniaHDD
    Writing library             : x264 core 148 r2717 0d2410d
    Encoding settings           : cabac=1 / ref=3 / deblock=1:0:0 / analyse=0x1:0x111 / me=umh / subme=10 / psy=1 / psy_rd=1.00:0.00 / mixed_ref=1 / me_range=24 / chroma_me=1 / trellis=2 / 8x8dct=0 / cqm=0 / deadzone=21,11 / fast_pskip=1 / chroma_qp_offset=-2 / threads=8 / lookahead_threads=1 / sliced_threads=0 / nr=0 / decimate=1 / interlaced=0 / bluray_compat=0 / stitchable=1 / constrained_intra=0 / bframes=2 / b_pyramid=0 / b_adapt=2 / b_bias=0 / direct=3 / weightb=1 / open_gop=0 / weightp=2 / keyint=250 / keyint_min=23 / scenecut=0 / intra_refresh=0 / rc_lookahead=48 / rc=2pass / mbtree=1 / bitrate=5800 / ratetol=1.0 / qcomp=0.50 / qpmin=6 / qpmax=51 / qpstep=4 / cplxblur=20.0 / qblur=0.5 / vbv_maxrate=8700 / vbv_bufsize=11600 / nal_hrd=vbr / filler=0 / ip_ratio=1.40 / aq=1:1.00
    Default                     : Yes
    Forced                      : No

    Audio #1
    ID                          : 2
    Format                      : E-AC-3
    Format/Info                 : Enhanced AC-3
    Commercial name             : Dolby Digital Plus
    Codec ID                    : A_EAC3
    Duration                    : 42 min 19 s
    Bit rate mode               : Constant
    Bit rate                    : 128 kb/s
    Channel(s)                  : 2 channels
    Channel layout              : L R
    Sampling rate               : 48.0 kHz
    Frame rate                  : 31.250 FPS (1536 SPF)
    Compression mode            : Lossy
    Stream size                 : 38.8 MiB (2%)
    Title                       : Español latino [CinemaniaHDD]
    Language                    : Spanish
    Service kind                : Complete Main
    Default                     : Yes
    Forced                      : No

    Audio #2
    ID                          : 3
    Format                      : AC-3
    Format/Info                 : Audio Coding 3
    Commercial name             : Dolby Digital
    Codec ID                    : A_AC3
    Duration                    : 42 min 19 s
    Bit rate mode               : Constant
    Bit rate                    : 384 kb/s
    Channel(s)                  : 6 channels
    Channel layout              : L R C LFE Ls Rs
    Sampling rate               : 48.0 kHz
    Frame rate                  : 31.250 FPS (1536 SPF)
    Compression mode            : Lossy
    Stream size                 : 116 MiB (6%)
    Title                       : Inglés [CinemaniaHDD]
    Language                    : English
    Service kind                : Complete Main
    Default                     : No
    Forced                      : No

    Text #1
    ID                          : 4
    Format                      : UTF-8
    Codec ID                    : S_TEXT/UTF8
    Codec ID/Info               : UTF-8 Plain Text
    Duration                    : 1 s 710 ms
    Bit rate                    : 243 b/s
    Count of elements           : 1
    Stream size                 : 52.0 Bytes (0%)
    Title                       : Forzados [CinemaniaHDD]
    Language                    : Spanish
    Default                     : Yes
    Forced                      : Yes

    Text #2
    ID                          : 5
    Format                      : UTF-8
    Codec ID                    : S_TEXT/UTF8
    Codec ID/Info               : UTF-8 Plain Text
    Duration                    : 41 min 35 s
    Bit rate                    : 73 b/s
    Count of elements           : 1222
    Stream size                 : 22.5 KiB (0%)
    Title                       : Inglés [CinemaniaHDD]
    Language                    : English
    Default                     : No
    Forced                      : No

    Text #3
    ID                          : 6
    Format                      : UTF-8
    Codec ID                    : S_TEXT/UTF8
    Codec ID/Info               : UTF-8 Plain Text
    Duration                    : 42 min 5 s
    Bit rate                    : 66 b/s
    Count of elements           : 666
    Stream size                 : 20.5 KiB (0%)
    Title                       : Español latino [CinemaniaHDD]
    Language                    : Spanish
    Default                     : No
    Forced                      : No

     

  • Peso: 1.86 GiB GiB Aprox C/U --- 25 GiB in 19 chapter

Sinopsis

Descargar Supergirl (2019) Temporada 05 CW Web-DL 1080p Latino. Las aventuras de la prima de Superman en su propia carrera de superhéroe. “A los 12 años, Kara escapó del condenado planeta Krypton con la ayuda de sus padres, al mismo tiempo que el bebé Kal-El. Protegida y criada en la Tierra por su familia adoptiva, los Danvers, Kara creció a la sombra de su hermana de crianza, Alex (Chyler Leigh), y aprendió a ocultar los poderes fenomenales que comparte con su famoso primo con el fin de mantener su identidad en secreto”.

Antes de morir a manos de su propia hermana, Lex confesó la verdadera identidad de Supergirl. Esto hace que Lena pierda toda la confianza que tenía en Kara y busque enfrentarse a la superheroína. CatCo pasa a manos de Andrea Rojas, llevando el periódico hacia el sensacionalismo. Surgen dos nuevos enemigos: Midnight y Malefic, el hermano gemelo de J’onn J’orzz.

Español Latino EAC3 2.0 CW – Ingles AC3 5.1 CW

Ficha técnica

Video trailer de la película

Enlaces de descarga

Rip de Bluray

Descargar Supergirl (2019 – 2020) Temporada 05 CW Web-DL 1080p Latino




Aportes de DPeliculasHDmega la pass es:dpeliculashdmega.org Aportes de CinemaniaHD la pass es:cinemaniahdd.com

Películas relacionadas

descargar Supergirl (2019 – 2020) Temporada 05 CW Web-DL 1080p Latino WEBDL 1080p gratis, Supergirl (2019 – 2020) Temporada 05 CW Web-DL 1080p Latino WEBDL mega 1 link, Supergirl (2019 – 2020) Temporada 05 CW Web-DL 1080p Latino WEBDL serie completa, descargar Supergirl (2019 – 2020) Temporada 05 CW Web-DL 1080p Latino WEBDL gratis en mega.

Supergirl (2019 – 2020) Temporada 05 CW Web-DL 1080p Latino pelicula full hd, Supergirl (2019 – 2020) Temporada 05 CW Web-DL 1080p Latino mega latino, Supergirl (2019 – 2020) Temporada 05 CW Web-DL 1080p Latino 4k latino, Supergirl (2019 – 2020) Temporada 05 CW Web-DL 1080p Latino pelicula completa, Supergirl (2019 – 2020) Temporada 05 CW Web-DL 1080p Latino descargar gratis, descargar Supergirl (2019 – 2020) Temporada 05 CW Web-DL 1080p Latino pelicula latino, Supergirl (2019 – 2020) Temporada 05 CW Web-DL 1080p Latino 1 link mega, Supergirl (2019 – 2020) Temporada 05 CW Web-DL 1080p Latino 1 link google drive, Supergirl (2019 – 2020) Temporada 05 CW Web-DL 1080p Latino hd 1080p latino.
Comentarios 0