Spider-Man: Lejos de casa (2019) IMAX 4K UHD HDR Web-DL Latino

53 vistas
1 estrella2 estrellas3 estrellas4 estrellas5 estrellas (1 votos, promedio: 5,00 de 5)
Cargando…

Información de Spider-Man: Lejos de casa (2019) IMAX 4K UHD HDR Web-DL Latino

Datos de la película

  • Calidad: WEBDL
  • Audio: Se especifica abajo de la Sinopsis
  • Subtitulos: Español Latino SRT - Ingles SRT
  • Resolución: 3840x2160p
  • Formato: MKV
  • Codec: HEVC
  • Encoder: CinefiloCool
  • Mediainfo: Clic para Mostrar Datos Ver
  • Spider-Man Lejos De Casa (2019) IMAX UHD HDR WEB Latino-CMHDD.mkv
    Format                      : Matroska
    Format version              : Version 4
    File size                   : 14.7 GiB
    Duration                    : 2 h 9 min
    Overall bit rate            : 16.2 Mb/s
    Movie name                  : Spider-Man Far From Home (2019) CinemaniaHDD.Net
    Encoded date                : UTC 2020-06-26 21:04:28
    Writing application         : mkvmerge v46.0.0 ('No Deeper Escape') 64-bit
    Writing library             : libebml v1.3.10 + libmatroska v1.5.2
    Attachments                 : CINEMANIAHD.png

    Video
    ID                          : 1
    Format                      : HEVC
    Format/Info                 : High Efficiency Video Coding
    Format profile              : Main 10@L5.1@Main
    HDR format                  : SMPTE ST 2086, HDR10 compatible
    Codec ID                    : V_MPEGH/ISO/HEVC
    Duration                    : 2 h 9 min
    Bit rate                    : 14.8 Mb/s
    Width                       : 3 840 pixels
    Height                      : 2 160 pixels
    Display aspect ratio        : 16:9
    Frame rate mode             : Constant
    Frame rate                  : 23.976 (24000/1001) FPS
    Color space                 : YUV
    Chroma subsampling          : 4:2:0 (Type 2)
    Bit depth                   : 10 bits
    Bits/(Pixel*Frame)          : 0.074
    Stream size                 : 13.4 GiB (91%)
    Title                       : Web 2160p HDR [CinemaniaHDD]
    Default                     : Yes
    Forced                      : No
    Color range                 : Limited
    Color primaries             : BT.2020
    Transfer characteristics    : PQ
    Matrix coefficients         : BT.2020 non-constant
    Mastering display color pri : Display P3
    Mastering display luminance : min: 0.0050 cd/m2, max: 4000 cd/m2
    Maximum Content Light Level : 10000 cd/m2
    Maximum Frame-Average Light : 595 cd/m2

    Audio #1
    ID                          : 2
    Format                      : AC-3
    Format/Info                 : Audio Coding 3
    Commercial name             : Dolby Digital
    Codec ID                    : A_AC3
    Duration                    : 2 h 9 min
    Bit rate mode               : Constant
    Bit rate                    : 640 kb/s
    Channel(s)                  : 6 channels
    Channel layout              : L R C LFE Ls Rs
    Sampling rate               : 48.0 kHz
    Frame rate                  : 31.250 FPS (1536 SPF)
    Compression mode            : Lossy
    Delay relative to video     : 28 ms
    Stream size                 : 592 MiB (4%)
    Title                       : Español Latino [CinemaniaHDD]
    Language                    : Spanish
    Service kind                : Complete Main
    Default                     : Yes
    Forced                      : Yes

    Audio #2
    ID                          : 3
    Format                      : DTS
    Format/Info                 : Digital Theater Systems
    Codec ID                    : A_DTS
    Duration                    : 2 h 9 min
    Bit rate mode               : Constant
    Bit rate                    : 768 kb/s
    Channel(s)                  : 6 channels
    Channel layout              : C L R Ls Rs LFE
    Sampling rate               : 48.0 kHz
    Frame rate                  : 93.750 FPS (512 SPF)
    Bit depth                   : 16 bits
    Compression mode            : Lossy
    Stream size                 : 711 MiB (5%)
    Title                       : Ingles [CinemaniaHDD]
    Language                    : English
    Default                     : No
    Forced                      : No

    Text #1
    ID                          : 4
    Format                      : UTF-8
    Codec ID                    : S_TEXT/UTF8
    Codec ID/Info               : UTF-8 Plain Text
    Duration                    : 2 h 8 min
    Bit rate                    : 0 b/s
    Count of elements           : 11
    Stream size                 : 329 Bytes (0%)
    Title                       : Forzados-SRT [CinemaniaHDD]
    Language                    : Spanish
    Default                     : Yes
    Forced                      : Yes

    Text #2
    ID                          : 5
    Format                      : UTF-8
    Codec ID                    : S_TEXT/UTF8
    Codec ID/Info               : UTF-8 Plain Text
    Duration                    : 2 h 8 min
    Bit rate                    : 61 b/s
    Count of elements           : 1715
    Stream size                 : 58.1 KiB (0%)
    Title                       : Español-SRT [CinemaniaHDD]
    Language                    : Spanish
    Default                     : No
    Forced                      : No

    Text #3
    ID                          : 6
    Format                      : UTF-8
    Codec ID                    : S_TEXT/UTF8
    Codec ID/Info               : UTF-8 Plain Text
    Duration                    : 2 h 7 min
    Bit rate                    : 64 b/s
    Count of elements           : 2027
    Stream size                 : 60.7 KiB (0%)
    Title                       : Ingles-SRT [CinemaniaHDD]
    Language                    : English
    Default                     : No
    Forced                      : No

  • Peso: 14.7 GiB

Sinopsis

Descargar Spider-Man: Lejos de casa (2019) IMAX 4K UHD HDR Web-DL Latino. Peter Parker decide irse junto a Michelle Jones, Ned y el resto de sus amigos a pasar unas vacaciones a Europa después de los eventos ocurridos en Vengadores: EndGame. Sin embargo, el plan de Parker por dejar de lado sus superpoderes durante unas semanas se ven truncados cuándo es reclutado por Nick Fury para unirse a Mysterio (un humano que proviene de la Tierra 833, una dimensión del multiverso, que tuvo su primera aparición en Doctor Strange) para luchar contra los elementales (cuatro entes inmortales que vienen de la misma dimensión y que dominan los cuatro elementos de la naturaleza, el fuego, el agua, el aire y la tierra) . En ese momento, Parker vuelve a ponerse el traje de Spider-Man para cumplir con su labor.

Audio Español Latino AC3 5.1 – Ingles DTS 5.1 

Ficha técnica

Video trailer de la película

Enlaces de descarga

Rip de Bluray

Descargar Spider-Man: Lejos de casa (2019) IMAX 4K UHD HDR Web-DL Latino




Aportes de DPeliculasHDmega la pass es:dpeliculashdmega.org Aportes de CinemaniaHD la pass es:cinemaniahdd.com

Películas relacionadas

  • Amenaza Roja (2012) HD 1080p Latino

    Amenaza Roja (2012) HD 1080p Latino

    2012
    Amenaza Roja (2012) HD 1080p Latino

    5.0 1h 33m 2012

    Remake de la película de 1984 de John Milius que narraba cómo ocho adolescentes huían a las montañas...

    Director: Joe Camp III

    Género: Acción

    Actores: Zachary Schafer

  • Amenaza Roja (2012) PLACEBO Full HD 1080p Latino

    Amenaza Roja (2012) PLACEBO Full HD 1080p Latino

    2012
    Amenaza Roja (2012) PLACEBO Full HD 1080p Latino

    5.0 1h 33m 2012

    Remake de la película de 1984 de John Milius que narraba cómo ocho adolescentes huían a las montañas...

    Director: Joe Camp III

    Género: Acción

    Actores: Zachary Schafer

  • Amenaza Roja (2012) REMUX 1080p Latino

    Amenaza Roja (2012) REMUX 1080p Latino

    2012
    Amenaza Roja (2012) REMUX 1080p Latino

    5.0 1h 33m 2012

    Remake de la película de 1984 de John Milius que narraba cómo ocho adolescentes huían a las montañas...

    Director: Joe Camp III

    Género: Acción

    Actores: Zachary Schafer

  • Æon Flux (2005) HD 1080p Latino – CMHDD

    Æon Flux (2005) HD 1080p Latino – CMHDD

    2005
    Æon Flux (2005) HD 1080p Latino – CMHDD

    0.0 1h 30m 2005

    Ambientada 400 años en el futuro, una plaga ha hecho desaparecer a la mayoria de la población, excepto...

    Director: Trudy Ramirez

    Género: Acción

    Actores: Yangzom Brauen

  • Æon Flux (2005) Full HD 1080p Latino – CMHDD

    Æon Flux (2005) Full HD 1080p Latino – CMHDD

    2005
    Æon Flux (2005) Full HD 1080p Latino – CMHDD

    0.0 1h 30m 2005

    Ambientada 400 años en el futuro, una plaga ha hecho desaparecer a la mayoria de la población, excepto...

    Director: Trudy Ramirez

    Género: Acción

    Actores: Yangzom Brauen

Comentarios 0