×

¿Problemas para descargar con Mozilla, EDGE? Deshabilita la opción "Abrir vinculos en una pestaña nueva" tal como lo muestra ésta imagen.

Snow White and the Huntsman (2012) [EXTENDED] REMUX 4K HDR Latino – CMHDD

207 vistas

Información de Snow White and the Huntsman (2012) [EXTENDED] REMUX 4K HDR Latino – CMHDD

Datos de la película

  • Calidad: 4K HDR
  • Audio: Español Latino AC3 5.1 BLURAY - Ingles DTS-HD Master 7.1 BLURAY
  • Subtitulos: Español Latino PGS
  • Resolución: 3840x2160p
  • Formato: MKV
  • Codec: H.264
  • Encoder: Dracarys
  • Mediainfo: Clic para Mostrar Datos Ver
  • Format                      : Matroska
    Format version              : Version 4
    File size                   : 49.2 GiB
    Duration                    : 2 h 11 min
    Overall bit rate mode       : Variable
    Overall bit rate            : 53.5 Mb/s
    Movie name                  : Snow White and the Huntsman (2012) [EXTENDED] REMUX 4K HDR Latino - CMHDD
    Encoded date                : UTC 2021-07-04 20:53:29
    Writing application         : mkvmerge v56.1.0 ('My Friend') 64-bit
    Writing library             : libebml v1.4.2 + libmatroska v1.6.4
    Cover                       : Yes
    Attachments                 : cover.jpg / cover.jpg / cover.jpg

    Video
    ID                          : 1
    Format                      : HEVC
    Format/Info                 : High Efficiency Video Coding
    Format profile              : Main 10@L5.1@High
    HDR format                  : SMPTE ST 2086, HDR10 compatible
    Codec ID                    : V_MPEGH/ISO/HEVC
    Duration                    : 2 h 11 min
    Bit rate                    : 48.8 Mb/s
    Width                       : 3 840 pixels
    Height                      : 2 160 pixels
    Display aspect ratio        : 16:9
    Frame rate mode             : Constant
    Frame rate                  : 23.976 (24000/1001) FPS
    Color space                 : YUV
    Chroma subsampling          : 4:2:0 (Type 2)
    Bit depth                   : 10 bits
    Bits/(Pixel*Frame)          : 0.246
    Stream size                 : 44.8 GiB (91%)
    Writing library             : ATEME Titan KFE 3.7.3 (4.7.3.1003)
    Default                     : Yes
    Forced                      : No
    Color range                 : Limited
    Color primaries             : BT.2020
    Transfer characteristics    : PQ
    Matrix coefficients         : BT.2020 non-constant
    Mastering display color pri : Display P3
    Mastering display luminance : min: 0.0050 cd/m2, max: 1000 cd/m2
    Maximum Content Light Level : 1000 cd/m2
    Maximum Frame-Average Light : 400 cd/m2

    Audio #1
    ID                          : 2
    Format                      : DTS XLL X
    Format/Info                 : Digital Theater Systems
    Commercial name             : DTS-HD Master Audio
    Codec ID                    : A_DTS
    Duration                    : 2 h 11 min
    Bit rate mode               : Variable
    Bit rate                    : 3 810 kb/s
    Channel(s)                  : 8 channels
    Channel(s)_Original         : Object Based
    ChannelLayout_Original      : Object Based
    Sampling rate               : 48.0 kHz
    Frame rate                  : 93.750 FPS (512 SPF)
    Bit depth                   : 24 bits
    Stream size                 : 3.50 GiB (7%)
    Language                    : English
    Default                     : No
    Forced                      : No

    Audio #2
    ID                          : 3
    Format                      : DTS
    Format/Info                 : Digital Theater Systems
    Codec ID                    : A_DTS
    Duration                    : 2 h 11 min
    Bit rate mode               : Constant
    Bit rate                    : 255 kb/s
    Channel(s)                  : 2 channels
    Channel layout              : L R
    Sampling rate               : 48.0 kHz
    Frame rate                  : 93.750 FPS (512 SPF)
    Bit depth                   : 24 bits
    Compression mode            : Lossy
    Stream size                 : 240 MiB (0%)
    Language                    : English
    Default                     : No
    Forced                      : No

    Audio #3
    ID                          : 4
    Format                      : AC-3
    Format/Info                 : Audio Coding 3
    Commercial name             : Dolby Digital
    Codec ID                    : A_AC3
    Duration                    : 2 h 11 min
    Bit rate mode               : Constant
    Bit rate                    : 640 kb/s
    Channel(s)                  : 6 channels
    Channel layout              : L R C LFE Ls Rs
    Sampling rate               : 48.0 kHz
    Frame rate                  : 31.250 FPS (1536 SPF)
    Compression mode            : Lossy
    Stream size                 : 602 MiB (1%)
    Language                    : Spanish
    Service kind                : Complete Main
    Default                     : Yes
    Forced                      : No

    Text
    ID                          : 5
    Format                      : PGS
    Muxing mode                 : zlib
    Codec ID                    : S_HDMV/PGS
    Codec ID/Info               : Picture based subtitle format used on BDs/HD-DVDs
    Duration                    : 2 h 10 min
    Bit rate                    : 15.5 kb/s
    Count of elements           : 1824
    Stream size                 : 14.5 MiB (0%)
    Language                    : Spanish
    Default                     : No
    Forced                      : No

    Menu
    00:00:00.000                : Chapter 01
    00:05:05.054                : Chapter 02
    00:10:26.792                : Chapter 03
    00:19:48.854                : Chapter 04
    00:27:46.456                : Chapter 05
    00:32:40.458                : Chapter 06
    00:38:04.490                : Chapter 07
    00:44:02.097                : Chapter 08
    00:51:08.648                : Chapter 09
    00:58:17.869                : Chapter 10
    01:02:08.558                : Chapter 11
    01:08:57.967                : Chapter 12
    01:13:36.537                : Chapter 13
    01:16:59.072                : Chapter 14
    01:26:57.003                : Chapter 15
    01:36:30.993                : Chapter 16
    01:43:37.794                : Chapter 17
    01:49:51.459                : Chapter 18
    01:53:44.734                : Chapter 19
    02:01:50.094                : Chapter 20

  • Peso: 49.2 GiB

Sinopsis

Versión oscura del cuento de los hermanos Grimm. Sólo una mujer (Kristen Stewart) supera en belleza a una reina tan malvada (Theron) que está dispuesta a acabar con ella. Pero la pérfida soberana ignora que el cazador (Chris Hemsworth) que debía haberla matado, no sólo le ha salvado la vida, sino que le ha enseñado a defenderse. Poco después, aparecerá en escena el Príncipe Azul (Sam Clafin) que queda hechizado por la belleza y el poder de Blancanieves.

Ficha técnica

Video trailer de la película

Enlaces de descarga

Rip de Bluray

Descargar Snow White and the Huntsman (2012) [EXTENDED] REMUX 4K HDR Latino – CMHDD


Aportes de DPeliculasHDmega la pass es:dpeliculashdmega.org Aportes de CinemaniaHD la pass es:cinemaniahdd.com
Guardado en : Aventura , Drama , Fantasía

Películas relacionadas

  • Jaula Mental (2022) HD 1080p Latino

    Jaula Mental (2022) HD 1080p Latino

    2022
    Jaula Mental (2022) HD 1080p Latino

    1h 47m 2022

    Descargar Jaula Mental (2022) HD 1080p Latino. Cuando un asesino que imita otros crímenes comienza a...

    Director: Mauro Borrelli

    Género: Crimen

    Actores: Victoria Fox

  • Jaula Mental (2022) PLACEBO Full HD 1080p Latino

    Jaula Mental (2022) PLACEBO Full HD 1080p Latino

    2022
    Jaula Mental (2022) PLACEBO Full HD 1080p Latino

    1h 47m 2022

    Descargar Jaula Mental (2022) PLACEBO Full HD 1080p Latino. Cuando un asesino que imita otros crímenes...

    Director: Mauro Borrelli

    Género: Crimen

    Actores: Victoria Fox

  • Jaula Mental (2022) REMUX 1080p Latino

    Jaula Mental (2022) REMUX 1080p Latino

    2022
    Jaula Mental (2022) REMUX 1080p Latino

    1h 47m 2022

    Descargar Jaula Mental (2022) REMUX 1080p Latino. Cuando un asesino que imita otros crímenes comienza...

    Director: Mauro Borrelli

    Género: Crimen

    Actores: Victoria Fox

  • Transfusion (2023) HD 1080p Latino

    Transfusion (2023) HD 1080p Latino

    2023
    Transfusion (2023) HD 1080p Latino

    1h 45m 2023

    Descargar Transfusion (2023) HD 1080p Latino. Un antiguo agente de las Fuerzas Especiales se ve empujado...

    Director: Matt Nable

    Género: Crimen

    Actores: Trystan Go

  • Transfusion (2023) PLACEBO Full HD 1080p Latino

    Transfusion (2023) PLACEBO Full HD 1080p Latino

    2023
    Transfusion (2023) PLACEBO Full HD 1080p Latino

    1h 45m 2023

    Descargar Transfusion (2023) PLACEBO Full HD 1080p Latino. Un antiguo agente de las Fuerzas Especiales...

    Director: Matt Nable

    Género: Crimen

    Actores: Trystan Go

descargar Snow White and the Huntsman (2012) [EXTENDED] REMUX 4K HDR Latino – CMHDD 4K HDR 1080p gratis, Snow White and the Huntsman (2012) [EXTENDED] REMUX 4K HDR Latino – CMHDD 4K HDR mega 1 link, Snow White and the Huntsman (2012) [EXTENDED] REMUX 4K HDR Latino – CMHDD 4K HDR pelicula completa, descargar Snow White and the Huntsman (2012) [EXTENDED] REMUX 4K HDR Latino – CMHDD 4K HDR gratis en mega.

Snow White and the Huntsman (2012) [EXTENDED] REMUX 4K HDR Latino – CMHDD pelicula full hd, Snow White and the Huntsman (2012) [EXTENDED] REMUX 4K HDR Latino – CMHDD mega latino, Snow White and the Huntsman (2012) [EXTENDED] REMUX 4K HDR Latino – CMHDD 4k latino, Snow White and the Huntsman (2012) [EXTENDED] REMUX 4K HDR Latino – CMHDD pelicula completa, Snow White and the Huntsman (2012) [EXTENDED] REMUX 4K HDR Latino – CMHDD descargar gratis, descargar Snow White and the Huntsman (2012) [EXTENDED] REMUX 4K HDR Latino – CMHDD pelicula latino, Snow White and the Huntsman (2012) [EXTENDED] REMUX 4K HDR Latino – CMHDD 1 link mega, Snow White and the Huntsman (2012) [EXTENDED] REMUX 4K HDR Latino – CMHDD 1 link google drive, Snow White and the Huntsman (2012) [EXTENDED] REMUX 4K HDR Latino – CMHDD hd 1080p latino.
Comentarios 0