Sing Ven Y Canta (2016) FULL 1080p x265 Latino

2.195 vistas
1 estrella2 estrellas3 estrellas4 estrellas5 estrellas (3 votos, promedio: 4,67 de 5)
Cargando…

Información de Sing Ven Y Canta (2016) FULL 1080p x265 Latino

Datos de la película

  • Calidad: Full 1080p
  • Audio: Español Latino AC3 5.1 BLURAY - Ingles DTS 5.1 BLURAY
  • Subtitulos: Español Latino PGS
  • Resolución: 1920x1080p
  • Formato: MKV
  • Codec: H.265
  • Encoder:
  • Mediainfo: Clic para Mostrar Datos Ver
  • Sing Ven Y Canta (2016) 1080p BluRay x265 HEVC Dual Latino.mkv
    Format                      : Matroska
    Format version              : Version 4 / Version 2
    File size                   : 3.18 GiB
    Duration                    : 1h 47mn
    Overall bit rate            : 4 217 Kbps
    Encoded date                : UTC 2017-04-16 21:46:15
    Writing application         : mkvmerge v8.6.1 ('Flying') 64bit
    Writing library             : libebml v1.3.3 + libmatroska v1.4.4
    DURATION                    : 01:46:51.030000000
    NUMBER_OF_FRAMES            : 2934
    NUMBER_OF_BYTES             : 26004861
    _STATISTICS_WRITING_APP     : mkvmerge v8.6.1 ('Flying') 64bit
    _STATISTICS_WRITING_DATE_UT : 2017-04-16 21:46:15
    _STATISTICS_TAGS            : BPS DURATION NUMBER_OF_FRAMES NUMBER_OF_BYTES

    Video
    ID                          : 1
    Format                      : HEVC
    Format/Info                 : High Efficiency Video Coding
    Format profile              : [email protected]@Main
    Codec ID                    : V_MPEGH/ISO/HEVC
    Duration                    : 1h 47mn
    Bit rate                    : 3 045 Kbps
    Width                       : 1 920 pixels
    Height                      : 1 080 pixels
    Display aspect ratio        : 16:9
    Frame rate mode             : Constant
    Frame rate                  : 23.976 fps
    Color space                 : YUV
    Chroma subsampling          : 4:2:0
    Bit depth                   : 8 bits
    Bits/(Pixel*Frame)          : 0.061
    Stream size                 : 2.29 GiB (72%)
    Writing library             : x265 2.1:[Windows][GCC 5.4.0][64 bit] 8bit
    Encoding settings           : wpp / ctu=64 / min-cu-size=8 / max-tu-size=32 / tu-intra-depth=1 / tu-inter-depth=1 / me=3 / subme=3 / merange=57 / rect / no-amp / max-merge=3 / temporal-mvp / no-early-skip / rskip / rdpenalty=0 / no-tskip / no-tskip-fast / strong-intra-smoothing / no-lossless / no-cu-lossless / no-constrained-intra / no-fast-intra / open-gop / no-temporal-layers / interlace=0 / keyint=240 / min-keyint=24 / scenecut=40 / rc-lookahead=25 / lookahead-slices=4 / bframes=4 / bframe-bias=0 / b-adapt=2 / ref=4 / limit-refs=3 / limit-modes / weightp / no-weightb / aq-mode=1 / qg-size=32 / aq-strength=1.00 / cbqpoffs=0 / crqpoffs=0 / rd=4 / psy-rd=2.00 / rdoq-level=2 / psy-rdoq=1.00 / log2-max-poc-lsb=8 / no-rd-refine / signhide / deblock=0:0 / sao / no-sao-non-deblock / b-pyramid / cutree / no-intra-refresh / rc=crf / crf=20.0 / qcomp=0.60 / qpmin=0 / qpmax=69 / qpstep=4 / ipratio=1.40 / pbratio=1.30
    Default                     : Yes
    Forced                      : No
    Color range                 : Limited
    Color primaries             : BT.709
    Transfer characteristics    : BT.709
    Matrix coefficients         : BT.709
    DURATION                    : 01:47:53.676000000
    NUMBER_OF_FRAMES            : 155212
    NUMBER_OF_BYTES             : 2503784580
    _STATISTICS_WRITING_APP     : mkvmerge v8.6.1 ('Flying') 64bit
    _STATISTICS_WRITING_DATE_UT : 2017-04-16 21:46:15
    _STATISTICS_TAGS            : BPS DURATION NUMBER_OF_FRAMES NUMBER_OF_BYTES

    Audio #1
    ID                          : 2
    Format                      : AC-3
    Format/Info                 : Audio Coding 3
    Mode extension              : CM (complete main)
    Format settings, Endianness : Big
    Codec ID                    : A_AC3
    Duration                    : 1h 47mn
    Bit rate mode               : Constant
    Bit rate                    : 448 Kbps
    Channel(s)                  : 6 channels
    Channel positions           : Front: L C R, Side: L R, LFE
    Sampling rate               : 48.0 KHz
    Compression mode            : Lossy
    Stream size                 : 346 MiB (11%)
    Title                       : Español Latino AC3 5.1 [448 Kbps]
    Language                    : Spanish
    Default                     : Yes
    Forced                      : No

    Audio #2
    ID                          : 3
    Format                      : AC-3
    Format/Info                 : Audio Coding 3
    Mode extension              : CM (complete main)
    Format settings, Endianness : Big
    Codec ID                    : A_AC3
    Duration                    : 1h 47mn
    Bit rate mode               : Constant
    Bit rate                    : 640 Kbps
    Channel(s)                  : 6 channels
    Channel positions           : Front: L C R, Side: L R, LFE
    Sampling rate               : 48.0 KHz
    Compression mode            : Lossy
    Stream size                 : 494 MiB (15%)
    Title                       : Inglés AC3 5.1 [640 Kbps]
    Language                    : English
    Default                     : No
    Forced                      : No

    Text #1
    ID                          : 4
    Format                      : PGS
    Codec ID                    : S_HDMV/PGS
    Codec ID/Info               : Picture based subtitle format used on BDs/HD-DVDs
    Title                       : Subtítulos Español Latino - Forzados [PGS]
    Language                    : Spanish
    Default                     : No
    Forced                      : Yes

    Text #2
    ID                          : 5
    Format                      : PGS
    Codec ID                    : S_HDMV/PGS
    Codec ID/Info               : Picture based subtitle format used on BDs/HD-DVDs
    Title                       : Subtítulos Español Latino [PGS]
    Language                    : Spanish
    Default                     : No
    Forced                      : No

    Menu
    00:00:00.000                : :Chapter 1
    00:04:29.352                : :Chapter 2
    00:10:36.469                : :Chapter 3
    00:14:04.677                : :Chapter 4
    00:18:32.653                : :Chapter 5
    00:25:14.722                : :Chapter 6
    00:30:04.052                : :Chapter 7
    00:35:11.776                : :Chapter 8
    00:40:07.405                : :Chapter 9
    00:44:36.132                : :Chapter 10
    00:50:26.649                : :Chapter 11
    00:55:36.208                : :Chapter 12
    01:04:40.710                : :Chapter 13
    01:14:03.981                : :Chapter 14
    01:19:17.962                : :Chapter 15
    01:23:59.159                : :Chapter 16
    01:26:56.461                : :Chapter 17
    01:30:38.266                : :Chapter 18
    01:34:47.182                : :Chapter 19
    01:40:16.010                : :Chapter 20

  • Peso: 3.18 GB

Sinopsis

Buster es un koala que posee y dirige un gran teatro que está pasando por un momento muy delicado. Para arreglar la situación y recuperar la gloria perdida, organizará el concurso de canto más grande del mundo, que atrae a multitud de animales que buscan convertirse en estrellas. Entre ellos encontramos a un bromista y arrogante ratón, una elefanta adolescente que tiene pánico escénico, una cerda que padece estrés debido a su camada de 25 lechones, un joven gorila proveniente de una familia de gánsteres y una puercoespín que tiene su propia banda de rock alternativo.

Ficha técnica

Imágenes, Capturas de la película

Imágenes, Capturas de la película

Video trailer de la película

Enlaces de descarga

Rip de Bluray

Descargar Sing Ven Y Canta (2016) FULL 1080p x265 Latino




Aportes de DPeliculasHDmega la pass es:dpeliculashdmega.org Aportes de CinemaniaHD la pass es:cinemaniahdd.com

Películas relacionadas

  • The Dirt (2019) NF WEB-DL 1080p Latino

    2019
    The Dirt (2019) NF WEB-DL 1080p Latino

    0.0 0h 0m 2019

    Basada en la autobiografía publicada por el grupo Mötley Crüe en 2001, esta obra refleja la historia...

    Director: Jeff Tremaine

    Género: Drama

    Actores: Vince Mattis

  • WiFi Ralph (2018) 4K UHD HDR Latino

    2018
    WiFi Ralph (2018) 4K UHD HDR Latino

    5.0 1h 52m 2018

    Descargar WiFi Ralph (2018) 4K UHD HDR Latino, Mega, Google Drive. Ralph sale de los recreativos y......

    Director: Rich Moore

    Género: 4K HDR

    Actores: Wayne Sermon

  • Las Dos Reinas (2018) 4K UHD HDR Latino

    2018
    Las Dos Reinas (2018) 4K UHD HDR Latino

    5.0 2h 5m 2018

    Descargar Las Dos Reinas (2018) 4K UHD HDR Latino, Mega, Google Drive. Dos mujeres rivales en el poder...

    Director: Josie Rourke

    Género: 4K HDR

    Actores: Thom Petty

Comentarios 0