×

¿Problemas para descargar con Mozilla, EDGE? Deshabilita la opción "Abrir vinculos en una pestaña nueva" tal como lo muestra ésta imagen.

Sherlock Holmes (2009) REMUX 1080p Latino

806 vistas

Información de Sherlock Holmes (2009) REMUX 1080p Latino

Datos de la película

  • Calidad: Full 1080p
  • Audio: Español Latino AC3 5.1 BLURAY - Ingles DTS 5.1 BLURAY
  • Subtitulos: Español Latino SRT- FORZADOS SRT
  • Resolución: 1920x1080p
  • Formato: MKV
  • Codec: H.264
  • Encoder: Dracarys
  • Mediainfo: Clic para Mostrar Datos Ver
  • Format                      : Matroska
    Format version              : Version 4
    File size                   : 21.8 GiB
    Duration                    : 2 h 8 min
    Overall bit rate mode       : Variable
    Overall bit rate            : 24.3 Mb/s
    Movie name                  : CinemaniaHDD.net
    Encoded date                : UTC 2020-01-15 00:19:43
    Writing application         : mkvmerge v38.0.0 ('The Silent Type') 64-bit
    Writing library             : libebml v1.3.9 + libmatroska v1.5.2

    Video
    ID                          : 1
    Format                      : VC-1
    Format profile              : Advanced@L3
    Codec ID                    : V_MS/VFW/FOURCC / WVC1
    Codec ID/Hint               : Microsoft
    Duration                    : 2 h 8 min
    Bit rate                    : 19.8 Mb/s
    Width                       : 1 920 pixels
    Height                      : 1 080 pixels
    Display aspect ratio        : 16:9
    Frame rate mode             : Constant
    Frame rate                  : 23.976 (24000/1001) FPS
    Color space                 : YUV
    Chroma subsampling          : 4:2:0
    Bit depth                   : 8 bits
    Scan type                   : Progressive
    Compression mode            : Lossy
    Bits/(Pixel*Frame)          : 0.399
    Stream size                 : 17.8 GiB (82%)
    Language                    : English
    Default                     : Yes
    Forced                      : No

    Audio #1
    ID                          : 2
    Format                      : DTS XLL
    Format/Info                 : Digital Theater Systems
    Commercial name             : DTS-HD Master Audio
    Codec ID                    : A_DTS
    Duration                    : 2 h 8 min
    Bit rate mode               : Variable
    Bit rate                    : 3 978 kb/s
    Channel(s)                  : 6 channels
    Channel layout              : C L R Ls Rs LFE
    Sampling rate               : 48.0 kHz
    Frame rate                  : 93.750 FPS (512 SPF)
    Bit depth                   : 24 bits
    Compression mode            : Lossless
    Stream size                 : 3.57 GiB (16%)
    Language                    : English
    Default                     : No
    Forced                      : No

    Audio #2
    ID                          : 3
    Format                      : AC-3
    Format/Info                 : Audio Coding 3
    Commercial name             : Dolby Digital
    Codec ID                    : A_AC3
    Duration                    : 2 h 8 min
    Bit rate mode               : Constant
    Bit rate                    : 448 kb/s
    Channel(s)                  : 6 channels
    Channel layout              : L R C LFE Ls Rs
    Sampling rate               : 48.0 kHz
    Frame rate                  : 31.250 FPS (1536 SPF)
    Bit depth                   : 16 bits
    Compression mode            : Lossy
    Stream size                 : 411 MiB (2%)
    Language                    : Spanish
    Service kind                : Complete Main
    Default                     : Yes
    Forced                      : No

    Text #1
    ID                          : 4
    Format                      : UTF-8
    Codec ID                    : S_TEXT/UTF8
    Codec ID/Info               : UTF-8 Plain Text
    Duration                    : 2 h 6 min
    Bit rate                    : 52 b/s
    Count of elements           : 1423
    Stream size                 : 49.1 KiB (0%)
    Language                    : Spanish
    Default                     : No
    Forced                      : No

    Text #2
    ID                          : 5
    Format                      : PGS
    Muxing mode                 : zlib
    Codec ID                    : S_HDMV/PGS
    Codec ID/Info               : Picture based subtitle format used on BDs/HD-DVDs
    Duration                    : 2 h 8 min
    Bit rate                    : 28.0 kb/s
    Count of elements           : 2848
    Stream size                 : 25.7 MiB (0%)
    Language                    : Spanish
    Default                     : No
    Forced                      : No

    Menu
    00:00:00.000                : en:Catching a Killer
    00:06:46.531                : en:Case of Stagnation
    00:11:30.231                : en:Telling About Mary
    00:15:41.607                : en:Blow By Blow
    00:19:08.897                : en:Last Request
    00:23:29.074                : en:Bound Together
    00:27:49.876                : en:Miss Alder for Hire
    00:32:01.252                : en:The Irene I Know
    00:37:08.434                : en:Resurrection
    00:40:50.406                : en:Apt Prediction
    00:44:37.216                : en:Sorcery and Science
    00:47:39.690                : en:Meat or Potatoes?
    00:50:52.173                : en:Giving Up the Ship
    00:55:17.605                : en:Friends in High Places
    00:59:04.457                : en:Blackwood's Lineage
    01:03:04.780                : en:Mutual Danger
    01:06:08.047                : en:Dead and Bath
    01:11:14.102                : en:Remake the World
    01:14:39.349                : en:On Purpose
    01:17:36.318                : en:Lambs to Slaughter
    01:23:35.093                : en:Trap for Three
    01:26:06.953                : en:The Best You Can Do
    01:30:57.159                : en:Next Target
    01:35:15.376                : en:Smoking Out a Coward
    01:39:45.979                : en:Countdown to Noon
    01:44:18.001                : en:Bell and Death Tolls
    01:48:21.953                : en:Cutting a Conjurer Loose
    01:54:02.710                : en:My Weak Spot
    01:56:07.501                : en:Moriarty's Mark
    02:00:26.177                : en:End Credits

  • Peso: 21.8 GiB

Sinopsis

En un nuevo y dinámico retrato de los personajes más famosos de Arthur Conan Doyle, Sherlock Holmes envía a Holmes y a Watson, su incondicional compañero, a enfrentarse a un nuevo reto. Mostrando unas habilidades para luchar tan letales como su legendaria agudeza intelectual, Holmes peleará como nunca para acabar con un nuevo enemigo y desenmarañar así un complot mortal que podría destruir el país. Adaptación del cómic de Lionel Wigram, que reinventaba los personajes de Arthur Conan Doyle, convirtiendo a Sherlock Holmes (Robert Downey Jr.) y al Doctor John Watson (Jude Law) en detectives con habilidades para el boxeo y el uso de la espada, respectivamente.

Ficha técnica

Video trailer de la película

Enlaces de descarga

Rip de Bluray

Descargar Sherlock Holmes (2009) REMUX 1080p Latino




Aportes de DPeliculasHDmega la pass es:dpeliculashdmega.org Aportes de CinemaniaHD la pass es:cinemaniahdd.com
Guardado en : Acción , Aventura , Crimen , Misterio , Remux

Películas relacionadas

descargar Sherlock Holmes (2009) REMUX 1080p Latino Full 1080p 1080p gratis, Sherlock Holmes (2009) REMUX 1080p Latino Full 1080p mega 1 link, Sherlock Holmes (2009) REMUX 1080p Latino Full 1080p pelicula completa, descargar Sherlock Holmes (2009) REMUX 1080p Latino Full 1080p gratis en mega.

Sherlock Holmes (2009) REMUX 1080p Latino pelicula full hd, Sherlock Holmes (2009) REMUX 1080p Latino mega latino, Sherlock Holmes (2009) REMUX 1080p Latino 4k latino, Sherlock Holmes (2009) REMUX 1080p Latino pelicula completa, Sherlock Holmes (2009) REMUX 1080p Latino descargar gratis, descargar Sherlock Holmes (2009) REMUX 1080p Latino pelicula latino, Sherlock Holmes (2009) REMUX 1080p Latino 1 link mega, Sherlock Holmes (2009) REMUX 1080p Latino 1 link google drive, Sherlock Holmes (2009) REMUX 1080p Latino hd 1080p latino.
Comentarios 0