×

¿Problemas para descargar con Mozilla, EDGE? Deshabilita la opción "Abrir vinculos en una pestaña nueva" tal como lo muestra ésta imagen.

Shallow Hal (2001) REMUX 1080p Latino – CMHDD

299 vistas

Información de Shallow Hal (2001) REMUX 1080p Latino – CMHDD

Datos de la película

  • Calidad: Full 1080p
  • Audio: Español Latino AC3 5.1 BLURAY - Ingles DTS 5.1 BLURAY
  • Subtitulos: Español Latino PGS
  • Resolución: 1920x1080p
  • Formato: MKV
  • Codec: H.264
  • Encoder: Dracarys
  • Mediainfo: Clic para Mostrar Datos Ver
  • Format                      : Matroska
    Format version              : Version 4
    File size                   : 25.9 GiB
    Duration                    : 1 h 53 min
    Overall bit rate mode       : Variable
    Overall bit rate            : 32.6 Mb/s
    Movie name                  : Shallow Hal (2001) REMUX 1080p Latino - CMHDD
    Encoded date                : UTC 2021-03-15 21:49:23
    Writing application         : mkvmerge v51.0.0 ('I Wish') 64-bit
    Writing library             : libebml v1.4.0 + libmatroska v1.6.2
    Cover                       : Yes
    Attachments                 : cover.jpg

    Video
    ID                          : 1
    ID in the original source m : 4113 (0x1011)
    Format                      : AVC
    Format/Info                 : Advanced Video Codec
    Format profile              : High@L4.1
    Format settings             : CABAC / 4 Ref Frames
    Format settings, CABAC      : Yes
    Format settings, Reference  : 4 frames
    Codec ID                    : V_MPEG4/ISO/AVC
    Duration                    : 1 h 53 min
    Bit rate mode               : Variable
    Bit rate                    : 27.9 Mb/s
    Maximum bit rate            : 30.0 Mb/s
    Width                       : 1 920 pixels
    Height                      : 1 080 pixels
    Display aspect ratio        : 16:9
    Frame rate mode             : Constant
    Frame rate                  : 23.976 (24000/1001) FPS
    Color space                 : YUV
    Chroma subsampling          : 4:2:0
    Bit depth                   : 8 bits
    Scan type                   : Progressive
    Bits/(Pixel*Frame)          : 0.562
    Stream size                 : 22.2 GiB (86%)
    Default                     : Yes
    Forced                      : No
    Original source medium      : Blu-ray

    Audio #1
    ID                          : 2
    ID in the original source m : 4353 (0x1101)
    Format                      : AC-3
    Format/Info                 : Audio Coding 3
    Commercial name             : Dolby Digital
    Codec ID                    : A_AC3
    Duration                    : 1 h 53 min
    Bit rate mode               : Constant
    Bit rate                    : 448 kb/s
    Channel(s)                  : 6 channels
    Channel layout              : L R C LFE Ls Rs
    Sampling rate               : 48.0 kHz
    Frame rate                  : 31.250 FPS (1536 SPF)
    Compression mode            : Lossy
    Stream size                 : 364 MiB (1%)
    Language                    : Spanish
    Service kind                : Complete Main
    Default                     : Yes
    Forced                      : No
    Original source medium      : Blu-ray

    Audio #2
    ID                          : 3
    ID in the original source m : 4352 (0x1100)
    Format                      : DTS XLL
    Format/Info                 : Digital Theater Systems
    Commercial name             : DTS-HD Master Audio
    Codec ID                    : A_DTS
    Duration                    : 1 h 53 min
    Bit rate mode               : Variable
    Bit rate                    : 4 266 kb/s
    Channel(s)                  : 6 channels
    Channel layout              : C L R Ls Rs LFE
    Sampling rate               : 48.0 kHz
    Frame rate                  : 93.750 FPS (512 SPF)
    Bit depth                   : 24 bits
    Compression mode            : Lossless
    Stream size                 : 3.39 GiB (13%)
    Language                    : English
    Default                     : No
    Forced                      : No
    Original source medium      : Blu-ray

    Text
    ID                          : 4
    ID in the original source m : 4609 (0x1201)
    Format                      : PGS
    Muxing mode                 : zlib
    Codec ID                    : S_HDMV/PGS
    Codec ID/Info               : Picture based subtitle format used on BDs/HD-DVDs
    Duration                    : 1 h 52 min
    Bit rate                    : 36.8 kb/s
    Count of elements           : 2570
    Stream size                 : 29.7 MiB (0%)
    Language                    : Spanish
    Default                     : No
    Forced                      : No
    Original source medium      : Blu-ray

    Menu
    00:00:00.000                : en:Chapter 01
    00:04:21.552                : en:Chapter 02
    00:06:33.101                : en:Chapter 03
    00:08:44.190                : en:Chapter 04
    00:10:11.819                : en:Chapter 05
    00:12:08.686                : en:Chapter 06
    00:17:32.176                : en:Chapter 07
    00:21:18.777                : en:Chapter 08
    00:27:11.254                : en:Chapter 09
    00:31:58.082                : en:Chapter 10
    00:35:05.144                : en:Chapter 11
    00:38:18.546                : en:Chapter 12
    00:41:55.596                : en:Chapter 13
    00:44:51.063                : en:Chapter 14
    00:48:30.657                : en:Chapter 15
    00:53:33.710                : en:Chapter 16
    00:56:12.827                : en:Chapter 17
    01:01:26.599                : en:Chapter 18
    01:04:30.116                : en:Chapter 19
    01:06:55.678                : en:Chapter 20
    01:10:14.668                : en:Chapter 21
    01:16:46.685                : en:Chapter 22
    01:20:02.422                : en:Chapter 23
    01:23:42.475                : en:Chapter 24
    01:28:33.516                : en:Chapter 25
    01:32:24.372                : en:Chapter 26
    01:39:22.748                : en:Chapter 27
    01:45:47.049                : en:Chapter 28

  • Peso: 25.9 GiB

Sinopsis

Hal Larsen es un muchacho superficial que sólo encuentra bellas a las chicas que parecen supermodelos. Sin embargo, después de ser sometido a una sesión de hipnosis por un conocido gurú, sólo será capaz de ver la belleza interior de las mujeres. Rosemary, una chica obesa y bondadosa, se cruzará en su camino y Hal se enamorará locamente de ella.

Ficha técnica

Video trailer de la película

Enlaces de descarga

Rip de Bluray

Descargar Shallow Hal (2001) REMUX 1080p Latino – CMHDD


Aportes de DPeliculasHDmega la pass es:dpeliculashdmega.org Aportes de CinemaniaHD la pass es:cinemaniahdd.com
Guardado en : Comedia , Romance

Películas relacionadas

descargar Shallow Hal (2001) REMUX 1080p Latino – CMHDD Full 1080p 1080p gratis, Shallow Hal (2001) REMUX 1080p Latino – CMHDD Full 1080p mega 1 link, Shallow Hal (2001) REMUX 1080p Latino – CMHDD Full 1080p pelicula completa, descargar Shallow Hal (2001) REMUX 1080p Latino – CMHDD Full 1080p gratis en mega.

Shallow Hal (2001) REMUX 1080p Latino – CMHDD pelicula full hd, Shallow Hal (2001) REMUX 1080p Latino – CMHDD mega latino, Shallow Hal (2001) REMUX 1080p Latino – CMHDD 4k latino, Shallow Hal (2001) REMUX 1080p Latino – CMHDD pelicula completa, Shallow Hal (2001) REMUX 1080p Latino – CMHDD descargar gratis, descargar Shallow Hal (2001) REMUX 1080p Latino – CMHDD pelicula latino, Shallow Hal (2001) REMUX 1080p Latino – CMHDD 1 link mega, Shallow Hal (2001) REMUX 1080p Latino – CMHDD 1 link google drive, Shallow Hal (2001) REMUX 1080p Latino – CMHDD hd 1080p latino.
Comentarios 0