×

¿Problemas para descargar con Mozilla, EDGE? Deshabilita la opción "Abrir vinculos en una pestaña nueva" tal como lo muestra ésta imagen.

Seuls (2017) 1080p Latino

1.489 vistas

Información de Seuls (2017) 1080p Latino

Datos de la película

  • Calidad: WEBDL
  • Audio: Latino AC3 2.0 DVD - Frances AC3 5.1 BLURAY
  • Subtitulos: Español Latino SRT- FORZADOS SRT
  • Resolución: 1920x800
  • Formato: MKV
  • Codec: H.264
  • Encoder: cinemaniahdd
  • Mediainfo: Clic para Mostrar Datos Ver
  • Seuls (2017) 1080p Latino.mkv
    Format                      : Matroska
    Format version              : Version 4
    File size                   : 2.80 GiB
    Duration                    : 1 h 37 min
    Overall bit rate            : 4 103 kb/s
    Movie name                  : Seuls (2017) - CinemaniaHDD.Net
    Encoded date                : UTC 2020-03-03 07:05:32
    Writing application         : mkvmerge v42.0.0 ('Overtime') 64-bit
    Writing library             : libebml v1.3.10 + libmatroska v1.5.2

    Video
    ID                          : 1
    Format                      : AVC
    Format/Info                 : Advanced Video Codec
    Format profile              : Main@L4
    Format settings             : CABAC / 4 Ref Frames
    Format settings, CABAC      : Yes
    Format settings, ReFrames   : 4 frames
    Codec ID                    : V_MPEG4/ISO/AVC
    Duration                    : 1 h 37 min
    Bit rate                    : 3 500 kb/s
    Width                       : 1 920 pixels
    Height                      : 800 pixels
    Display aspect ratio        : 2.35:1
    Frame rate mode             : Constant
    Frame rate                  : 24.000 FPS
    Color space                 : YUV
    Chroma subsampling          : 4:2:0
    Bit depth                   : 8 bits
    Scan type                   : Progressive
    Bits/(Pixel*Frame)          : 0.095
    Stream size                 : 2.32 GiB (83%)
    Title                       : CinemaniaHDD
    Writing library             : x264 core 157 r2935 545de2f
    Encoding settings           : cabac=1 / ref=3 / deblock=1:0:0 / analyse=0x1:0x111 / me=hex / subme=7 / psy=1 / psy_rd=1.00:0.00 / mixed_ref=1 / me_range=16 / chroma_me=1 / trellis=1 / 8x8dct=0 / cqm=0 / deadzone=21,11 / fast_pskip=1 / chroma_qp_offset=-2 / threads=25 / lookahead_threads=4 / sliced_threads=0 / nr=0 / decimate=1 / interlaced=0 / bluray_compat=0 / constrained_intra=0 / bframes=3 / b_pyramid=2 / b_adapt=1 / b_bias=0 / direct=1 / weightb=1 / open_gop=0 / weightp=2 / keyint=240 / keyint_min=24 / scenecut=40 / intra_refresh=0 / rc_lookahead=40 / rc=abr / mbtree=1 / bitrate=3500 / ratetol=1.0 / qcomp=0.60 / qpmin=0 / qpmax=69 / qpstep=4 / vbv_maxrate=20000 / vbv_bufsize=25000 / nal_hrd=none / filler=0 / ip_ratio=1.40 / aq=1:1.00
    Default                     : Yes
    Forced                      : No
    Color range                 : Limited
    Color primaries             : BT.709
    Transfer characteristics    : BT.709
    Matrix coefficients         : BT.709

    Audio #1
    ID                          : 2
    Format                      : AC-3
    Format/Info                 : Audio Coding 3
    Commercial name             : Dolby Digital
    Codec ID                    : A_AC3
    Duration                    : 1 h 37 min
    Bit rate mode               : Constant
    Bit rate                    : 256 kb/s
    Channel(s)                  : 2 channels
    Channel layout              : L R
    Sampling rate               : 48.0 kHz
    Frame rate                  : 31.250 FPS (1536 SPF)
    Bit depth                   : 16 bits
    Compression mode            : Lossy
    Delay relative to video     : -5 ms
    Stream size                 : 179 MiB (6%)
    Title                       : Español latino [CinemaniaHDD]
    Language                    : Spanish
    Service kind                : Complete Main
    Default                     : Yes
    Forced                      : No

    Audio #2
    ID                          : 3
    Format                      : AC-3
    Format/Info                 : Audio Coding 3
    Commercial name             : Dolby Digital
    Codec ID                    : A_AC3
    Duration                    : 1 h 37 min
    Bit rate mode               : Constant
    Bit rate                    : 448 kb/s
    Channel(s)                  : 6 channels
    Channel layout              : L R C LFE Ls Rs
    Sampling rate               : 48.0 kHz
    Frame rate                  : 31.250 FPS (1536 SPF)
    Bit depth                   : 16 bits
    Compression mode            : Lossy
    Delay relative to video     : -5 ms
    Stream size                 : 313 MiB (11%)
    Title                       : Francés [CinemaniaHDD]
    Language                    : French
    Service kind                : Complete Main
    Default                     : No
    Forced                      : No

    Text #1
    ID                          : 4
    Format                      : UTF-8
    Codec ID                    : S_TEXT/UTF8
    Codec ID/Info               : UTF-8 Plain Text
    Duration                    : 1 h 15 min
    Bit rate                    : 0 b/s
    Count of elements           : 14
    Stream size                 : 291 Bytes (0%)
    Title                       : Forzados [CinemaniaHDD]
    Language                    : Spanish
    Default                     : Yes
    Forced                      : Yes

    Text #2
    ID                          : 5
    Format                      : UTF-8
    Codec ID                    : S_TEXT/UTF8
    Codec ID/Info               : UTF-8 Plain Text
    Duration                    : 1 h 29 min
    Bit rate                    : 35 b/s
    Count of elements           : 944
    Stream size                 : 23.3 KiB (0%)
    Title                       : Español latino [CinemaniaHDD]
    Language                    : Spanish
    Default                     : No
    Forced                      : No

    Menu
    00:00:00.000                : :00:00:00.000
    00:08:17.583                : :00:08:17.583
    00:16:23.833                : :00:16:23.750
    00:24:09.000                : :00:24:09.000
    00:32:13.958                : :00:32:13.958
    00:40:42.333                : :00:40:42.333
    00:49:20.208                : :00:49:20.208
    00:57:03.708                : :00:57:03.667
    01:05:08.083                : :01:05:08.083
    01:11:29.292                : :01:11:29.125
    01:21:09.333                : :01:21:09.333
    01:27:16.083                : :01:27:16.083

     

  • Peso: 2.80 GiB

Sinopsis

Leïla de 16 años se despierta tarde como cada mañana. Pero justo hoy, no hay nadie que la presione. ¿Dónde están sus padres? Coge su bicicleta y atraviesa su barrio, vacío. Se ha ido todo el mundo. Ya pensaba que era la única superviviente de una catástrofe inexplicable cuando finalmente se cruza con otros cuatro jóvenes: Dodji, Yvan, Camille y Terry. Juntos tratarán de comprender qué ha ocurrido, y aprender a sobrevivir en un mundo que se ha vuelto hostil pero… ¿están realmente solos?

Ficha técnica

Video trailer de la película

Enlaces de descarga

Aportes de DPeliculasHDmega la pass es:dpeliculashdmega.org Aportes de CinemaniaHD la pass es:cinemaniahdd.com
Guardado en : Fantasía , Sin categoría

Películas relacionadas

  • Mi amigo el dragón (2016) Full HD 1080p Latino

    Mi amigo el dragón (2016) Full HD 1080p Latino

    2016
    Mi amigo el dragón (2016) Full HD 1080p Latino

    1h 43m 2016

    Descargar Mi amigo el dragón (2016) Full HD 1080p Latino. Durante años el Sr. Meacham, un viejo tallador...

    Director: Joe Nolan

    Género: Aventura

    Actores: William J. Rawbone

  • Mi amigo el dragón (2016) REMUX 1080p Latino

    Mi amigo el dragón (2016) REMUX 1080p Latino

    2016
    Mi amigo el dragón (2016) REMUX 1080p Latino

    1h 43m 2016

    Descargar Mi amigo el dragón (2016) REMUX 1080p Latino. Durante años el Sr. Meacham, un viejo tallador...

    Director: Joe Nolan

    Género: Aventura

    Actores: William J. Rawbone

  • Desde mi cielo (2009) REMUX 1080p Latino

    Desde mi cielo (2009) REMUX 1080p Latino

    2009
    Desde mi cielo (2009) REMUX 1080p Latino

    2h 15m 2009

    Descargar Desde mi cielo (2009) REMUX 1080p Latino. La historia gira en torno a Susie Salmon, que fue...

    Director: Peter Jackson

    Género: Drama

    Actores: William Zielinski

  • Black Panther (2018) IMAX Full HD 1080p Latino

    Black Panther (2018) IMAX Full HD 1080p Latino

    2018
    Black Panther (2018) IMAX Full HD 1080p Latino

    2 h 14 min 2018

    Descargar Black Panther (2018) IMAX Full HD 1080p Latino. Después de los acontecimientos de "Capitán...

    Director: Ryan Coogler

    Género: Acción

    Actores: Zola Williams

  • Black Panther (2018) Full HD 1080p Latino

    Black Panther (2018) Full HD 1080p Latino

    2018
    Black Panther (2018) Full HD 1080p Latino

    2h 14m 2018

    Descargar Black Panther (2018) Full HD 1080p Latino. Después de los acontecimientos de "Capitán América:...

    Director: Ryan Coogler

    Género: Acción

    Actores: Zola Williams

descargar Seuls (2017) 1080p Latino WEBDL 1080p gratis, Seuls (2017) 1080p Latino WEBDL mega 1 link, Seuls (2017) 1080p Latino WEBDL pelicula completa, descargar Seuls (2017) 1080p Latino WEBDL gratis en mega.

Seuls (2017) 1080p Latino pelicula full hd, Seuls (2017) 1080p Latino mega latino, Seuls (2017) 1080p Latino 4k latino, Seuls (2017) 1080p Latino pelicula completa, Seuls (2017) 1080p Latino descargar gratis, descargar Seuls (2017) 1080p Latino pelicula latino, Seuls (2017) 1080p Latino 1 link mega, Seuls (2017) 1080p Latino 1 link google drive, Seuls (2017) 1080p Latino hd 1080p latino.
Comentarios 1