×

¿Problemas para descargar con Mozilla, EDGE? Deshabilita la opción "Abrir vinculos en una pestaña nueva" tal como lo muestra ésta imagen.

Scary Movie 5 (2013) REMUX 1080p Latino

352 vistas

Información de Scary Movie 5 (2013) REMUX 1080p Latino

Datos de la película

  • Calidad: Full 1080p
  • Audio: Español Latino AC3 2.0 DVD - Ingles DTS 5.1 BLURAY
  • Subtitulos: Español Latino SRT
  • Resolución: 1920x1080p
  • Formato: MKV
  • Codec: H.264
  • Encoder: Dracarys
  • Mediainfo: Clic para Mostrar Datos Ver
  • Format                      : Matroska
    Format version              : Version 4
    File size                   : 16.7 GiB
    Duration                    : 1 h 28 min
    Overall bit rate mode       : Variable
    Overall bit rate            : 27.1 Mb/s
    Movie name                  : CinemaniaHDD.net
    Encoded date                : UTC 2020-04-30 03:53:10
    Writing application         : mkvmerge v38.0.0 ('The Silent Type') 64-bit
    Writing library             : libebml v1.3.9 + libmatroska v1.5.2

    Video
    ID                          : 1
    Format                      : AVC
    Format/Info                 : Advanced Video Codec
    Format profile              : High@L4.1
    Format settings             : CABAC / 2 Ref Frames
    Format settings, CABAC      : Yes
    Format settings, ReFrames   : 2 frames
    Format settings, GOP        : M=1, N=10
    Codec ID                    : V_MPEG4/ISO/AVC
    Duration                    : 1 h 28 min
    Bit rate mode               : Variable
    Bit rate                    : 23.3 Mb/s
    Width                       : 1 920 pixels
    Height                      : 1 080 pixels
    Display aspect ratio        : 16:9
    Frame rate mode             : Constant
    Frame rate                  : 23.976 (24000/1001) FPS
    Color space                 : YUV
    Chroma subsampling          : 4:2:0
    Bit depth                   : 8 bits
    Scan type                   : Progressive
    Bits/(Pixel*Frame)          : 0.469
    Stream size                 : 14.3 GiB (86%)
    Default                     : Yes
    Forced                      : No

    Audio #1
    ID                          : 2
    Format                      : AC-3
    Format/Info                 : Audio Coding 3
    Commercial name             : Dolby Digital
    Codec ID                    : A_AC3
    Duration                    : 1 h 28 min
    Bit rate mode               : Constant
    Bit rate                    : 256 kb/s
    Channel(s)                  : 6 channels
    Channel layout              : L R C LFE Ls Rs
    Sampling rate               : 44.1 kHz
    Frame rate                  : 28.711 FPS (1536 SPF)
    Bit depth                   : 16 bits
    Compression mode            : Lossy
    Stream size                 : 161 MiB (1%)
    Language                    : Serbian
    Service kind                : Complete Main
    Default                     : Yes
    Forced                      : No

    Audio #2
    ID                          : 3
    Format                      : DTS XLL
    Format/Info                 : Digital Theater Systems
    Commercial name             : DTS-HD Master Audio
    Codec ID                    : A_DTS
    Duration                    : 1 h 28 min
    Bit rate mode               : Variable
    Bit rate                    : 3 533 kb/s
    Channel(s)                  : 6 channels
    Channel layout              : C L R Ls Rs LFE
    Sampling rate               : 48.0 kHz
    Frame rate                  : 93.750 FPS (512 SPF)
    Bit depth                   : 24 bits
    Compression mode            : Lossless
    Stream size                 : 2.17 GiB (13%)
    Language                    : English
    Default                     : No
    Forced                      : No

    Text #1
    ID                          : 4
    Format                      : PGS
    Muxing mode                 : zlib
    Codec ID                    : S_HDMV/PGS
    Codec ID/Info               : Picture based subtitle format used on BDs/HD-DVDs
    Duration                    : 1 h 27 min
    Bit rate                    : 36.9 kb/s
    Count of elements           : 2200
    Stream size                 : 23.1 MiB (0%)
    Language                    : Spanish
    Default                     : No
    Forced                      : No

    Text #2
    ID                          : 5
    Format                      : UTF-8
    Codec ID                    : S_TEXT/UTF8
    Codec ID/Info               : UTF-8 Plain Text
    Duration                    : 1 h 27 min
    Bit rate                    : 58 b/s
    Count of elements           : 1100
    Stream size                 : 37.4 KiB (0%)
    Language                    : Spanish
    Default                     : No
    Forced                      : No

    Menu
    00:00:00.000                : en:00:00:00.000
    00:04:50.707                : en:00:04:50.707
    00:09:22.228                : en:00:09:22.228
    00:15:52.785                : en:00:15:52.785
    00:23:17.479                : en:00:23:17.479
    00:30:28.493                : en:00:30:28.493
    00:37:44.804                : en:00:37:44.804
    00:44:14.277                : en:00:44:14.277
    00:50:41.830                : en:00:50:41.830
    00:58:58.577                : en:00:58:58.577
    01:03:23.091                : en:01:03:23.091
    01:09:11.689                : en:01:09:11.689
    01:13:14.974                : en:01:13:14.974
    01:21:06.487                : en:01:21:06.487

  • Peso: 16.7 GiB

Sinopsis

Los felizmente casados Dan y Jody empiezan a observar algunos fenómenos extraños en su casa tras volver del hospital con su bebé, Aiden. Pero cuando el caos se apodera del trabajo de Jody como bailarina de ballet y de la carrera de Dan como investigador de monos, la pareja descubre que está siendo acosada por una presencia demoníaca. Juntos, con la ayuda de expertos cualificados y de numerosas cámaras, intentarán deshacerse del maléfico ser antes de que sea demasiado tarde.

Ficha técnica

  • Titulo original: Scary Movie 5
  • Fecha de lanzamiento: 11-04-2013 (United States of America)
  • Director: Malcolm D. Lee
  • Género: Comedia, Remux

Video trailer de la película

Enlaces de descarga

Rip de Bluray

Descargar Scary Movie 5 (2013) REMUX 1080p Latino




Aportes de DPeliculasHDmega la pass es:dpeliculashdmega.org Aportes de CinemaniaHD la pass es:cinemaniahdd.com
Guardado en : Comedia , Remux

Películas relacionadas

descargar Scary Movie 5 (2013) REMUX 1080p Latino Full 1080p 1080p gratis, Scary Movie 5 (2013) REMUX 1080p Latino Full 1080p mega 1 link, Scary Movie 5 (2013) REMUX 1080p Latino Full 1080p pelicula completa, descargar Scary Movie 5 (2013) REMUX 1080p Latino Full 1080p gratis en mega.

Scary Movie 5 (2013) REMUX 1080p Latino pelicula full hd, Scary Movie 5 (2013) REMUX 1080p Latino mega latino, Scary Movie 5 (2013) REMUX 1080p Latino 4k latino, Scary Movie 5 (2013) REMUX 1080p Latino pelicula completa, Scary Movie 5 (2013) REMUX 1080p Latino descargar gratis, descargar Scary Movie 5 (2013) REMUX 1080p Latino pelicula latino, Scary Movie 5 (2013) REMUX 1080p Latino 1 link mega, Scary Movie 5 (2013) REMUX 1080p Latino 1 link google drive, Scary Movie 5 (2013) REMUX 1080p Latino hd 1080p latino.
Comentarios 0