×

¿Problemas para descargar con Mozilla, EDGE? Deshabilita la opción "Abrir vinculos en una pestaña nueva" tal como lo muestra ésta imagen.

Scary Movie 3 (2003) REMUX 1080p Latino

303 vistas

Información de Scary Movie 3 (2003) REMUX 1080p Latino

Datos de la película

  • Calidad: Full 1080p
  • Audio: Español Latino AC3 2.0 DVD - Ingles DTS 5.1 BLURAY
  • Subtitulos: Español Latino SRT
  • Resolución: 1920x1080p
  • Formato: MKV
  • Codec: H.264
  • Encoder: Dracarys
  • Mediainfo: Clic para Mostrar Datos Ver
  • Format                      : Matroska
    Format version              : Version 4
    File size                   : 15.3 GiB
    Duration                    : 1 h 25 min
    Overall bit rate mode       : Variable
    Overall bit rate            : 25.4 Mb/s
    Movie name                  : CinemaniaHDD.net
    Encoded date                : UTC 2020-04-30 03:39:53
    Writing application         : mkvmerge v38.0.0 ('The Silent Type') 64-bit
    Writing library             : libebml v1.3.9 + libmatroska v1.5.2

    Video
    ID                          : 1
    Format                      : AVC
    Format/Info                 : Advanced Video Codec
    Format profile              : High@L4.1
    Format settings             : CABAC / 4 Ref Frames
    Format settings, CABAC      : Yes
    Format settings, ReFrames   : 4 frames
    Codec ID                    : V_MPEG4/ISO/AVC
    Duration                    : 1 h 25 min
    Bit rate mode               : Variable
    Bit rate                    : 20.9 Mb/s
    Maximum bit rate            : 35.0 Mb/s
    Width                       : 1 920 pixels
    Height                      : 1 080 pixels
    Display aspect ratio        : 16:9
    Frame rate mode             : Constant
    Frame rate                  : 23.976 (24000/1001) FPS
    Color space                 : YUV
    Chroma subsampling          : 4:2:0
    Bit depth                   : 8 bits
    Scan type                   : Progressive
    Bits/(Pixel*Frame)          : 0.421
    Stream size                 : 12.5 GiB (82%)
    Default                     : Yes
    Forced                      : No
    Color range                 : Limited
    Color primaries             : BT.709
    Transfer characteristics    : BT.709
    Matrix coefficients         : BT.709

    Audio #1
    ID                          : 2
    Format                      : AC-3
    Format/Info                 : Audio Coding 3
    Commercial name             : Dolby Digital
    Codec ID                    : A_AC3
    Duration                    : 1 h 25 min
    Bit rate mode               : Constant
    Bit rate                    : 192 kb/s
    Channel(s)                  : 2 channels
    Channel layout              : L R
    Sampling rate               : 48.0 kHz
    Frame rate                  : 31.250 FPS (1536 SPF)
    Bit depth                   : 16 bits
    Compression mode            : Lossy
    Delay relative to video     : 1 s 0 ms
    Stream size                 : 118 MiB (1%)
    Language                    : Spanish
    Service kind                : Complete Main
    Default                     : Yes
    Forced                      : No

    Audio #2
    ID                          : 3
    Format                      : DTS XLL
    Format/Info                 : Digital Theater Systems
    Commercial name             : DTS-HD Master Audio
    Codec ID                    : A_DTS
    Duration                    : 1 h 25 min
    Bit rate mode               : Variable
    Bit rate                    : 4 341 kb/s
    Channel(s)                  : 6 channels
    Channel layout              : C L R Ls Rs LFE
    Sampling rate               : 48.0 kHz
    Frame rate                  : 93.750 FPS (512 SPF)
    Bit depth                   : 24 bits
    Compression mode            : Lossless
    Delay relative to video     : 959 ms
    Stream size                 : 2.60 GiB (17%)
    Title                       : DTS-HD MA 5.1
    Language                    : English
    Default                     : No
    Forced                      : No

    Text #1
    ID                          : 4
    Format                      : UTF-8
    Codec ID                    : S_TEXT/UTF8
    Codec ID/Info               : UTF-8 Plain Text
    Duration                    : 1 h 15 min
    Bit rate                    : 63 b/s
    Count of elements           : 1178
    Stream size                 : 35.4 KiB (0%)
    Language                    : Spanish
    Default                     : No
    Forced                      : No

    Text #2
    ID                          : 5
    Format                      : PGS
    Muxing mode                 : zlib
    Codec ID                    : S_HDMV/PGS
    Codec ID/Info               : Picture based subtitle format used on BDs/HD-DVDs
    Duration                    : 1 h 15 min
    Bit rate                    : 38.9 kb/s
    Count of elements           : 2356
    Stream size                 : 21.0 MiB (0%)
    Language                    : Spanish
    Default                     : No
    Forced                      : No

    Menu
    00:00:00.000                : en:00:00:00.000
    00:04:48.205                : en:00:04:48.205
    00:07:15.727                : en:00:07:15.727
    00:10:28.127                : en:00:10:28.127
    00:15:35.893                : en:00:15:35.893
    00:24:01.649                : en:00:24:01.649
    00:28:39.676                : en:00:28:39.676
    00:33:20.832                : en:00:33:20.832
    00:37:50.727                : en:00:37:50.727
    00:43:15.134                : en:00:43:15.134
    00:49:11.949                : en:00:49:11.949
    00:52:56.590                : en:00:52:56.590
    00:54:20.257                : en:00:54:20.257
    00:58:46.523                : en:00:58:46.523
    01:01:48.163                : en:01:01:48.163
    01:07:13.238                : en:01:07:13.238
    01:10:30.560                : en:01:10:30.560
    01:16:09.440                : en:01:16:09.440

  • Peso: 15.3 GiB

Sinopsis

Después de haberlo pasado fatal -eso siempre según se mire- en las dos anteriores entregas, Cindy Campbell (Anna Faris) está dispuesta a salir adelante. Ahora es una guapa periodista que se propone encontrar una historia con la que poder destacar en un mundo tan duro como el del periodismo televisivo, en el que predomina la basura. Pero en su búsqueda se encuentra con que la Tierra está siendo amenazada por varios casos teroríficos que ponen los pelos de punta a cualquiera.

Ficha técnica

Video trailer de la película

Enlaces de descarga

Rip de Bluray

Descargar Scary Movie 3 (2003) REMUX 1080p Latino




Aportes de DPeliculasHDmega la pass es:dpeliculashdmega.org Aportes de CinemaniaHD la pass es:cinemaniahdd.com
Guardado en : Comedia , Remux

Películas relacionadas

  • Tren Bala (2022) WEB-DL 4K UHD HDR Latino

    Tren Bala (2022) WEB-DL 4K UHD HDR Latino

    2022
    Tren Bala (2022) WEB-DL 4K UHD HDR Latino

    2h 7m 2022

    Descargar Tren Bala (2022) WEB-DL 4K UHD HDR Latino. El desafortunado asesino "Catarina" está decidido...

    Director: Paul Barry

    Género: 4K HDR

    Actores: Zooey Miyoshi

  • Tren Bala (2022) AMZN WEB-DL 1080p Latino

    Tren Bala (2022) AMZN WEB-DL 1080p Latino

    2022
    Tren Bala (2022) AMZN WEB-DL 1080p Latino

    2h 7m 2022

    Descargar Tren Bala (2022) AMZN WEB-DL 1080p Latino. Cinco asesinos a sueldo se encuentran a bordo de...

    Director: Paul Barry

    Género: Acción

    Actores: Zooey Miyoshi

  • Rick y Morty (2022) Temporada 6 WEB-DL 1080p Latino

    Rick y Morty (2022) Temporada 6 WEB-DL 1080p Latino

    2013
    Rick y Morty (2022) Temporada 6 WEB-DL 1080p Latino

    0h 22m 2013

    Comedia animada que narra las aventuras de un científico loco Rick Sánchez, que regresa después de...

    Director: Justin Roiland

    Género: Action & Adventure

    Actores: Spencer Grammer

  • La familia Monster (2022) HD 1080p Latino

    La familia Monster (2022) HD 1080p Latino

    2022
    La familia Monster (2022) HD 1080p Latino

    1h 49m 2022

    Descargar La familia Monster (2022) HD 1080p Latino. Reboot de "The Munsters", que sigue las desventuras...

    Director: Rob Zombie

    Género: Comedia

    Actores: Tomas Boykin

descargar Scary Movie 3 (2003) REMUX 1080p Latino Full 1080p 1080p gratis, Scary Movie 3 (2003) REMUX 1080p Latino Full 1080p mega 1 link, Scary Movie 3 (2003) REMUX 1080p Latino Full 1080p pelicula completa, descargar Scary Movie 3 (2003) REMUX 1080p Latino Full 1080p gratis en mega.

Scary Movie 3 (2003) REMUX 1080p Latino pelicula full hd, Scary Movie 3 (2003) REMUX 1080p Latino mega latino, Scary Movie 3 (2003) REMUX 1080p Latino 4k latino, Scary Movie 3 (2003) REMUX 1080p Latino pelicula completa, Scary Movie 3 (2003) REMUX 1080p Latino descargar gratis, descargar Scary Movie 3 (2003) REMUX 1080p Latino pelicula latino, Scary Movie 3 (2003) REMUX 1080p Latino 1 link mega, Scary Movie 3 (2003) REMUX 1080p Latino 1 link google drive, Scary Movie 3 (2003) REMUX 1080p Latino hd 1080p latino.
Comentarios 0