×

¿Problemas para descargar con Mozilla, EDGE? Deshabilita la opción "Abrir vinculos en una pestaña nueva" tal como lo muestra ésta imagen.

Scary Movie 3 (2003) REMUX 1080p Latino – CMHDD

81 vistas

Información de Scary Movie 3 (2003) REMUX 1080p Latino – CMHDD

Datos de la película

  • Calidad: Full 1080p
  • Audio: Español Latino AC3 2.0 BLURAY - Ingles DTS 5.1 BLURAY
  • Subtitulos: Español Latino PGS
  • Resolución: 19201080p
  • Formato: MKV
  • Codec: H.264
  • Encoder: Dracarys
  • Mediainfo: Clic para Mostrar Datos Ver
  • Format                      : Matroska
    Format version              : Version 4
    File size                   : 15.9 GiB
    Duration                    : 1 h 25 min
    Overall bit rate mode       : Variable
    Overall bit rate            : 26.6 Mb/s
    Movie name                  : Scary Movie 3 (2003) REMUX 1080p Latino - CMHDD
    Encoded date                : UTC 2024-01-12 11:57:52
    Writing application         : mkvmerge v47.0.0 ('Black Flag') 64-bit
    Writing library             : libebml v1.3.10 + libmatroska v1.5.2

    Video
    ID                          : 1
    Format                      : AVC
    Format/Info                 : Advanced Video Codec
    Format profile              : High@L4.1
    Format settings             : CABAC / 4 Ref Frames
    Format settings, CABAC      : Yes
    Format settings, Reference  : 4 frames
    Codec ID                    : V_MPEG4/ISO/AVC
    Duration                    : 1 h 25 min
    Bit rate mode               : Variable
    Bit rate                    : 20.9 Mb/s
    Maximum bit rate            : 35.0 Mb/s
    Width                       : 1 920 pixels
    Height                      : 1 080 pixels
    Display aspect ratio        : 16:9
    Frame rate mode             : Constant
    Frame rate                  : 23.976 (24000/1001) FPS
    Color space                 : YUV
    Chroma subsampling          : 4:2:0
    Bit depth                   : 8 bits
    Scan type                   : Progressive
    Bits/(Pixel*Frame)          : 0.421
    Stream size                 : 12.5 GiB (79%)
    Language                    : English
    Default                     : Yes
    Forced                      : No
    Color range                 : Limited
    Color primaries             : BT.709
    Transfer characteristics    : BT.709
    Matrix coefficients         : BT.709

    Audio #1
    ID                          : 2
    Format                      : AC-3
    Format/Info                 : Audio Coding 3
    Commercial name             : Dolby Digital
    Codec ID                    : A_AC3
    Duration                    : 1 h 25 min
    Bit rate mode               : Constant
    Bit rate                    : 640 kb/s
    Channel(s)                  : 2 channels
    Channel layout              : L R
    Sampling rate               : 44.1 kHz
    Frame rate                  : 28.711 FPS (1536 SPF)
    Compression mode            : Lossy
    Delay relative to video     : 1 s 0 ms
    Stream size                 : 392 MiB (2%)
    Language                    : Spanish
    Service kind                : Complete Main
    Default                     : Yes
    Forced                      : No

    Audio #2
    ID                          : 3
    Format                      : AC-3
    Format/Info                 : Audio Coding 3
    Commercial name             : Dolby Digital
    Codec ID                    : A_AC3
    Duration                    : 1 h 25 min
    Bit rate mode               : Constant
    Bit rate                    : 640 kb/s
    Channel(s)                  : 6 channels
    Channel layout              : L R C LFE Ls Rs
    Sampling rate               : 48.0 kHz
    Frame rate                  : 31.250 FPS (1536 SPF)
    Compression mode            : Lossy
    Stream size                 : 392 MiB (2%)
    Language                    : English
    Service kind                : Complete Main
    Default                     : No
    Forced                      : No

    Audio #3
    ID                          : 4
    Format                      : DTS XLL
    Format/Info                 : Digital Theater Systems
    Commercial name             : DTS-HD Master Audio
    Codec ID                    : A_DTS
    Duration                    : 1 h 25 min
    Bit rate mode               : Variable
    Bit rate                    : 4 341 kb/s
    Channel(s)                  : 6 channels
    Channel layout              : C L R Ls Rs LFE
    Sampling rate               : 48.0 kHz
    Frame rate                  : 93.750 FPS (512 SPF)
    Bit depth                   : 24 bits
    Compression mode            : Lossless
    Delay relative to video     : 959 ms
    Stream size                 : 2.60 GiB (16%)
    Language                    : English
    Default                     : No
    Forced                      : No

    Text #1
    ID                          : 5
    Format                      : UTF-8
    Codec ID                    : S_TEXT/UTF8
    Codec ID/Info               : UTF-8 Plain Text
    Duration                    : 1 h 15 min
    Bit rate                    : 62 b/s
    Frame rate                  : 0.260 FPS
    Count of elements           : 1178
    Stream size                 : 34.4 KiB (0%)
    Language                    : Spanish
    Default                     : No
    Forced                      : No

    Text #2
    ID                          : 6
    Format                      : PGS
    Muxing mode                 : zlib
    Codec ID                    : S_HDMV/PGS
    Codec ID/Info               : Picture based subtitle format used on BDs/HD-DVDs
    Duration                    : 1 h 15 min
    Bit rate                    : 38.9 kb/s
    Frame rate                  : 0.519 FPS
    Count of elements           : 2356
    Stream size                 : 21.0 MiB (0%)
    Language                    : Spanish
    Default                     : No
    Forced                      : No

     

  • Peso: 15.9 GiB

Sinopsis

Después de haberlo pasado fatal -eso siempre según se mire- en las dos anteriores entregas, Cindy Campbell (Anna Faris) está dispuesta a salir adelante. Ahora es una guapa periodista que se propone encontrar una historia con la que poder destacar en un mundo tan duro como el del periodismo televisivo, en el que predomina la basura. Pero en su búsqueda se encuentra con que la Tierra está siendo amenazada por varios casos teroríficos que ponen los pelos de punta a cualquiera.

Ficha técnica

Video trailer de la película

Enlaces de descarga

Rip de Bluray

Descargar Scary Movie 3 (2003) REMUX 1080p Latino – CMHDD




Aportes de DPeliculasHDmega la pass es:dpeliculashdmega.org Aportes de CinemaniaHD la pass es:cinemaniahdd.com Aportes recientes:cinemaniahdd.net
Guardado en : Comedia

Películas relacionadas

  • La La Land (2016) REMUX 1080p Latino – CMHDD

    La La Land (2016) REMUX 1080p Latino – CMHDD

    2016
    La La Land (2016) REMUX 1080p Latino – CMHDD

    2h 8m 2016

    Mia (Emma Stone), una joven aspirante a actriz que trabaja como camarera mientras acude a castings, y...

    Director: Peter Kohn

    Género: Comedia

    Actores: Zoë Hall

  • La La Land (2016) REMUX 4K HDR Latino – CMHDD

    La La Land (2016) REMUX 4K HDR Latino – CMHDD

    2016
    La La Land (2016) REMUX 4K HDR Latino – CMHDD

    2h 8m 2016

    Mia, una joven aspirante a actriz que compagina los castings con su trabajo de camarera, y Sebastian,...

    Director: Peter Kohn

    Género: Comedia

    Actores: Zoë Hall

  • Loco Por Ella (2010) Full HD 1080p Latino-CMHDD

    Loco Por Ella (2010) Full HD 1080p Latino-CMHDD

    2010
    Loco Por Ella (2010) Full HD 1080p Latino-CMHDD

    1 h 41 min 2010

    Descargar Loco Por Ella (2010) REMUX 1080p Latino-CMHDD. Cuando Kassie (Jennifer Aniston) cumple los...

    Director: Will Speck

    Género: Actualizadas

    Actores: Will Swenson

  • Loco Por Ella (2010) REMUX 1080p Latino-CMHDD

    Loco Por Ella (2010) REMUX 1080p Latino-CMHDD

    2010
    Loco Por Ella (2010) REMUX 1080p Latino-CMHDD

    1h 39m 2010

    Descargar Loco Por Ella (2010) REMUX 1080p Latino-CMHDD. Cuando Kassie (Jennifer Aniston) cumple los...

    Director: Will Speck

    Género: Comedia

    Actores: Will Swenson

descargar Scary Movie 3 (2003) REMUX 1080p Latino – CMHDD Full 1080p 1080p gratis, Scary Movie 3 (2003) REMUX 1080p Latino – CMHDD Full 1080p mega 1 link, Scary Movie 3 (2003) REMUX 1080p Latino – CMHDD Full 1080p pelicula completa, descargar Scary Movie 3 (2003) REMUX 1080p Latino – CMHDD Full 1080p gratis en mega.

Scary Movie 3 (2003) REMUX 1080p Latino – CMHDD pelicula full hd, Scary Movie 3 (2003) REMUX 1080p Latino – CMHDD mega latino, Scary Movie 3 (2003) REMUX 1080p Latino – CMHDD 4k latino, Scary Movie 3 (2003) REMUX 1080p Latino – CMHDD pelicula completa, Scary Movie 3 (2003) REMUX 1080p Latino – CMHDD descargar gratis, descargar Scary Movie 3 (2003) REMUX 1080p Latino – CMHDD pelicula latino, Scary Movie 3 (2003) REMUX 1080p Latino – CMHDD 1 link mega, Scary Movie 3 (2003) REMUX 1080p Latino – CMHDD 1 link google drive, Scary Movie 3 (2003) REMUX 1080p Latino – CMHDD hd 1080p latino.
Comentarios 0