×

¿Problemas para descargar con Mozilla, EDGE? Deshabilita la opción "Abrir vinculos en una pestaña nueva" tal como lo muestra ésta imagen.

Rambo: Last Blood (2019) 4K UHD HDR Latino

1.782 vistas

Información de Rambo: Last Blood (2019) 4K UHD HDR Latino

Datos de la película

  • Calidad: 4K HDR
  • Audio: Español Latino AC3 5.1 BLURAY - Ingles AC3 5.1 BLURAY
  • Subtitulos: Español Latino PGS - Ingles PGS
  • Resolución: 3840x1610p
  • Formato: MKV
  • Codec: H.264
  • Encoder: CinefiloCool
  • Mediainfo: Clic para Mostrar Datos Ver
  • Rambo Ultima Mision (2019) UHD HDR Latino-CMHDD.mkv
    Format                      : Matroska
    Format version              : Version 4
    File size                   : 8.98 GiB
    Duration                    : 1 h 29 min
    Overall bit rate            : 14.4 Mb/s
    Movie name                  : CinemaniaHDD.Net
    Encoded date                : UTC 2019-12-10 19:03:29
    Writing application         : mkvmerge v38.0.0 ('The Silent Type') 64-bit
    Writing library             : libebml v1.3.9 + libmatroska v1.5.2
    Attachments                 : CINEMANIAHD.png

    Video
    ID                          : 1
    Format                      : HEVC
    Format/Info                 : High Efficiency Video Coding
    Commercial name             : HDR10
    Format profile              : Main 10@L5.1@High
    Codec ID                    : V_MPEGH/ISO/HEVC
    Duration                    : 1 h 29 min
    Bit rate                    : 13.3 Mb/s
    Width                       : 3 840 pixels
    Height                      : 1 610 pixels
    Display aspect ratio        : 2.40:1
    Frame rate mode             : Constant
    Frame rate                  : 23.976 (24000/1001) FPS
    Color space                 : YUV
    Chroma subsampling          : 4:2:0 (Type 2)
    Bit depth                   : 10 bits
    Bits/(Pixel*Frame)          : 0.089
    Stream size                 : 8.28 GiB (92%)
    Title                       : 2160p HDR [Bluray]
    Writing library             : x265 3.2+15-04db2bfee5d6:[Windows][GCC 9.2.1][64 bit] 10bit
    Encoding settings           : cpuid=1111039 / frame-threads=5 / numa-pools=32,0 / wpp / no-pmode / no-pme / no-psnr / no-ssim / log-level=2 / input-csp=1 / input-res=3840x1610 / interlace=0 / total-frames=128705 / level-idc=51 / high-tier=1 / uhd-bd=0 / ref=4 / no-allow-non-conformance / repeat-headers / annexb / aud / hrd / info / hash=0 / no-temporal-layers / no-open-gop / min-keyint=1 / keyint=24 / gop-lookahead=0 / bframes=4 / b-adapt=2 / b-pyramid / bframe-bias=0 / rc-lookahead=25 / lookahead-slices=4 / scenecut=40 / radl=0 / no-splice / no-intra-refresh / ctu=64 / min-cu-size=8 / rect / no-amp / max-tu-size=32 / tu-inter-depth=1 / tu-intra-depth=1 / limit-tu=0 / rdoq-level=2 / dynamic-rd=0.00 / no-ssim-rd / signhide / no-tskip / nr-intra=0 / nr-inter=0 / no-constrained-intra / no-strong-intra-smoothing / max-merge=3 / limit-refs=3 / limit-modes / me=3 / subme=3 / merange=57 / temporal-mvp / no-frame-dup / no-hme / weightp / no-weightb / no-analyze-src-pics / deblock=-3:-3 / no-sao / no-sao-non-deblock / rd=4 / selective-sao=0 / no-early-skip / rskip / no-fast-intra / no-tskip-fast / no-cu-lossless / no-b-intra / no-splitrd-skip / rdpenalty=0 / psy-rd=2.00 / psy-rdoq=1.00 / no-rd-refine / no-lossless / cbqpoffs=0 / crqpoffs=0 / rc=crf / crf=17.0 / qcomp=0.60 / qpstep=4 / stats-write=0 / stats-read=0 / vbv-maxrate=160000 / vbv-bufsize=160000 / vbv-init=0.9 / crf-max=0.0 / crf-min=0.0 / ipratio=1.40 / pbratio=1.30 / aq-mode=2 / aq-strength=1.00 / cutree / zone-count=0 / no-strict-cbr / qg-size=32 / no-rc-grain / qpmax=69 / qpmin=0 / no-const-vbv / sar=1 / overscan=0 / videoformat=5 / range=0 / colorprim=9 / transfer=16 / colormatrix=9 / chromaloc=1 / chromaloc-top=2 / chromaloc-bottom=2 / display-window=0 / master-display=G(13250,34500)B(7500,3000)R(34000,16000)WP(15635,16450)L(10000000,10) / cll=1000,475 / min-luma=0 / max-luma=1023 / log2-max-poc-lsb=8 / vui-timing-info / vui-hrd-info / slices=1 / no-opt-qp-pps / no-opt-ref-list-length-pps / no-multi-pass-opt-rps / scenecut-bias=0.05 / no-opt-cu-delta-qp / no-aq-motion / hdr / hdr-opt / no-dhdr10-opt / no-idr-recovery-sei / analysis-reuse-level=5 / scale-factor=0 / refine-intra=0 / refine-inter=0 / refine-mv=1 / refine-ctu-distortion=0 / no-limit-sao / ctu-info=0 / no-lowpass-dct / refine-analysis-type=0 / copy-pic=1 / max-ausize-factor=1.0 / no-dynamic-refine / no-single-sei / no-hevc-aq / no-svt / no-field / qp-adaptation-range=1.00 / no-scenecut-aware-qp
    Default                     : Yes
    Forced                      : Yes
    Color range                 : Limited
    Color primaries             : BT.2020
    Transfer characteristics    : PQ
    Matrix coefficients         : BT.2020 non-constant
    Mastering display color pri : Display P3
    Mastering display luminance : min: 0.0010 cd/m2, max: 1000 cd/m2
    Maximum Content Light Level : 1000 cd/m2
    Maximum Frame-Average Light : 475 cd/m2

    Audio #1
    ID                          : 2
    Format                      : AC-3
    Format/Info                 : Audio Coding 3
    Commercial name             : Dolby Digital
    Codec ID                    : A_AC3
    Duration                    : 1 h 29 min
    Bit rate mode               : Constant
    Bit rate                    : 448 kb/s
    Channel(s)                  : 6 channels
    Channel layout              : L R C LFE Ls Rs
    Sampling rate               : 48.0 kHz
    Frame rate                  : 31.250 FPS (1536 SPF)
    Bit depth                   : 16 bits
    Compression mode            : Lossy
    Stream size                 : 287 MiB (3%)
    Title                       : AC3_5.1_Bluray_Esp
    Language                    : Spanish
    Service kind                : Complete Main
    Default                     : Yes
    Forced                      : Yes

    Audio #2
    ID                          : 3
    Format                      : AC-3
    Format/Info                 : Audio Coding 3
    Commercial name             : Dolby Digital
    Codec ID                    : A_AC3
    Duration                    : 1 h 29 min
    Bit rate mode               : Constant
    Bit rate                    : 640 kb/s
    Channel(s)                  : 6 channels
    Channel layout              : L R C LFE Ls Rs
    Sampling rate               : 48.0 kHz
    Frame rate                  : 31.250 FPS (1536 SPF)
    Bit depth                   : 16 bits
    Compression mode            : Lossy
    Stream size                 : 410 MiB (4%)
    Title                       : AC3_5.1_Bluray_Eng
    Language                    : English
    Service kind                : Complete Main
    Default                     : No
    Forced                      : No

    Text #1
    ID                          : 4
    Format                      : PGS
    Muxing mode                 : zlib
    Codec ID                    : S_HDMV/PGS
    Codec ID/Info               : Picture based subtitle format used on BDs/HD-DVDs
    Duration                    : 1 h 9 min
    Bit rate                    : 118 b/s
    Count of elements           : 6
    Stream size                 : 60.2 KiB (0%)
    Title                       : Sub_Forzados [PGS]
    Language                    : Spanish
    Default                     : Yes
    Forced                      : Yes

    Text #2
    ID                          : 5
    Format                      : PGS
    Muxing mode                 : zlib
    Codec ID                    : S_HDMV/PGS
    Codec ID/Info               : Picture based subtitle format used on BDs/HD-DVDs
    Duration                    : 1 h 20 min
    Bit rate                    : 15.8 kb/s
    Count of elements           : 1096
    Stream size                 : 9.12 MiB (0%)
    Title                       : Sub_Esp [PGS]
    Language                    : Spanish
    Default                     : No
    Forced                      : No

    Text #3
    ID                          : 6
    Format                      : PGS
    Muxing mode                 : zlib
    Codec ID                    : S_HDMV/PGS
    Codec ID/Info               : Picture based subtitle format used on BDs/HD-DVDs
    Duration                    : 1 h 18 min
    Bit rate                    : 26.9 kb/s
    Count of elements           : 1680
    Stream size                 : 15.0 MiB (0%)
    Title                       : Sub_Eng [PGS]
    Language                    : English
    Default                     : No
    Forced                      : No

    Text #4
    ID                          : 7
    Format                      : UTF-8
    Codec ID                    : S_TEXT/UTF8
    Codec ID/Info               : UTF-8 Plain Text
    Duration                    : 1 h 17 min
    Bit rate                    : 26 b/s
    Count of elements           : 507
    Stream size                 : 14.9 KiB (0%)
    Title                       : Sub_Esp
    Language                    : Spanish
    Default                     : No
    Forced                      : No

    Menu
    00:00:00.000                : :Chapter 01
    00:04:50.081                : :Chapter 02
    00:10:59.158                : :Chapter 03
    00:14:35.792                : :Chapter 04
    00:22:39.024                : :Chapter 05
    00:25:11.719                : :Chapter 06
    00:31:24.382                : :Chapter 07
    00:36:12.253                : :Chapter 08
    00:41:08.299                : :Chapter 09
    00:46:37.878                : :Chapter 10
    00:49:29.967                : :Chapter 11
    00:55:04.927                : :Chapter 12
    01:00:08.230                : :Chapter 13
    01:05:57.495                : :Chapter 14
    01:12:06.280                : :Chapter 15
    01:17:47.288                : :Chapter 16

  • Peso: 8.98 GiB

Sinopsis

Descargar Rambo: Last Blood (2019) 4K UHD HDR Latino. Después de luchar contra sus demonios durante décadas, John Rambo vive ahora en paz en su rancho familiar en Arizona, pero su descanso se ve interrumpido cuando Gabriela, la nieta de su ama de llaves María, desaparece después de cruzar la frontera con México con el propósito de conocer a su padre biológico. Rambo, que con los años se ha convertido para Gabriela en una verdadera figura paterna, emprende un desesperado y peligroso viaje para encontrarla.

Ficha técnica

Video trailer de la película

Enlaces de descarga

Rip de Bluray

Descargar Rambo: Last Blood (2019) 4K UHD HDR Latino




Aportes de DPeliculasHDmega la pass es:dpeliculashdmega.org Aportes de CinemaniaHD la pass es:cinemaniahdd.com
Guardado en : 4K HDR , 4K UHD , Acción , Drama , Suspenso

Películas relacionadas

descargar Rambo: Last Blood (2019) 4K UHD HDR Latino 4K HDR 1080p gratis, Rambo: Last Blood (2019) 4K UHD HDR Latino 4K HDR mega 1 link, Rambo: Last Blood (2019) 4K UHD HDR Latino 4K HDR pelicula completa, descargar Rambo: Last Blood (2019) 4K UHD HDR Latino 4K HDR gratis en mega.

Rambo: Last Blood (2019) 4K UHD HDR Latino pelicula full hd, Rambo: Last Blood (2019) 4K UHD HDR Latino mega latino, Rambo: Last Blood (2019) 4K UHD HDR Latino 4k latino, Rambo: Last Blood (2019) 4K UHD HDR Latino pelicula completa, Rambo: Last Blood (2019) 4K UHD HDR Latino descargar gratis, descargar Rambo: Last Blood (2019) 4K UHD HDR Latino pelicula latino, Rambo: Last Blood (2019) 4K UHD HDR Latino 1 link mega, Rambo: Last Blood (2019) 4K UHD HDR Latino 1 link google drive, Rambo: Last Blood (2019) 4K UHD HDR Latino hd 1080p latino.
Comentarios 0