×

¿Problemas para descargar con Mozilla, EDGE? Deshabilita la opción "Abrir vinculos en una pestaña nueva" tal como lo muestra ésta imagen.

Ant-Man and the Wasp: Quantumania (2023) WEB-DL 1080p Latino

418 vistas

Información de Ant-Man and the Wasp: Quantumania (2023) WEB-DL 1080p Latino

Datos de la película

  • Calidad: WEBDL
  • Audio: Se especifica abajo de la Sinopsis
  • Subtitulos: Español Latino SRT- FORZADOS SRT
  • Resolución: 1920x804p
  • Formato: MKV
  • Codec: H.264
  • Encoder: Melkor
  • Mediainfo: Clic para Mostrar Datos Ver
  • Ant-Man and the Wasp Quantumania (2023) WebDL 1080p Latino.mkv
    Format                      : Matroska
    Format version              : Version 4
    File size                   : 10.3 GiB
    Duration                    : 2 h 4 min
    Overall bit rate            : 11.8 Mb/s
    Movie name                  : Ant Man and the Wasp. Quantumania (2023) CinemaniaHDD.Net
    Encoded date                : UTC 2023-04-17 18:00:17
    Writing application         : mkvmerge v56.1.0 ('My Friend') 64-bit
    Writing library             : libebml v1.4.2 + libmatroska v1.6.4
    Attachments                 : CINEMANIAHD.png
    Site                        : CinemaniaHDD.Net
    Uploader                    : Melkor

    Video
    ID                          : 1
    Format                      : AVC
    Format/Info                 : Advanced Video Codec
    Format profile              : High@L4
    Format settings             : CABAC / 5 Ref Frames
    Format settings, CABAC      : Yes
    Format settings, Reference  : 5 frames
    Codec ID                    : V_MPEG4/ISO/AVC
    Duration                    : 2 h 4 min
    Bit rate                    : 9 932 kb/s
    Width                       : 1 920 pixels
    Height                      : 804 pixels
    Display aspect ratio        : 2.40:1
    Frame rate mode             : Constant
    Frame rate                  : 23.976 (24000/1001) FPS
    Color space                 : YUV
    Chroma subsampling          : 4:2:0
    Bit depth                   : 8 bits
    Scan type                   : Progressive
    Bits/(Pixel*Frame)          : 0.268
    Stream size                 : 8.64 GiB (84%)
    Title                       : Web HD1080p [CinemaniaHDD]
    Language                    : English
    Default                     : Yes
    Forced                      : Yes
    Color range                 : Limited
    Color primaries             : BT.709
    Transfer characteristics    : BT.709
    Matrix coefficients         : BT.709

    Audio #1
    ID                          : 2
    Format                      : AC-3
    Format/Info                 : Audio Coding 3
    Commercial name             : Dolby Digital
    Codec ID                    : A_AC3
    Duration                    : 2 h 4 min
    Bit rate mode               : Constant
    Bit rate                    : 448 kb/s
    Channel(s)                  : 6 channels
    Channel layout              : L R C LFE Ls Rs
    Sampling rate               : 48.0 kHz
    Frame rate                  : 31.250 FPS (1536 SPF)
    Compression mode            : Lossy
    Stream size                 : 399 MiB (4%)
    Title                       : Español Latino AC3 [CinemaniaHDD]
    Language                    : Spanish
    Service kind                : Complete Main
    Default                     : Yes
    Forced                      : Yes

    Audio #2
    ID                          : 3
    Format                      : E-AC-3
    Format/Info                 : Enhanced AC-3
    Commercial name             : Dolby Digital Plus
    Format settings             : Dolby Surround EX
    Codec ID                    : A_EAC3
    Duration                    : 2 h 4 min
    Bit rate mode               : Constant
    Bit rate                    : 640 kb/s
    Channel(s)                  : 8 channels
    Channel layout              : L R C LFE Ls Rs Lb Rb
    Sampling rate               : 48.0 kHz
    Frame rate                  : 31.250 FPS (1536 SPF)
    Compression mode            : Lossy
    Stream size                 : 570 MiB (5%)
    Title                       : Español Latino EAC3 [CinemaniaHDD]
    Language                    : Spanish
    Service kind                : Complete Main
    Default                     : No
    Forced                      : No

    Audio #3
    ID                          : 4
    Format                      : E-AC-3 JOC
    Format/Info                 : Enhanced AC-3 with Joint Object Coding
    Commercial name             : Dolby Digital Plus with Dolby Atmos
    Codec ID                    : A_EAC3
    Duration                    : 2 h 4 min
    Bit rate mode               : Constant
    Bit rate                    : 768 kb/s
    Channel(s)                  : 6 channels
    Channel layout              : L R C LFE Ls Rs
    Sampling rate               : 48.0 kHz
    Frame rate                  : 31.250 FPS (1536 SPF)
    Compression mode            : Lossy
    Stream size                 : 684 MiB (7%)
    Title                       : Ingles [CinemaniaHDD]
    Language                    : English
    Service kind                : Complete Main
    Default                     : No
    Forced                      : No
    Complexity index            : 16
    Number of dynamic objects   : 15
    Bed channel count           : 1 channel
    Bed channel configuration   : LFE

    Text #1
    ID                          : 5
    Format                      : UTF-8
    Codec ID                    : S_TEXT/UTF8
    Codec ID/Info               : UTF-8 Plain Text
    Duration                    : 2 h 0 min
    Bit rate                    : 0 b/s
    Count of elements           : 3
    Stream size                 : 61.0 Bytes (0%)
    Title                       : Forzados-SRT [CinemaniaHDD]
    Language                    : Spanish
    Default                     : Yes
    Forced                      : Yes

    Text #2
    ID                          : 6
    Format                      : UTF-8
    Codec ID                    : S_TEXT/UTF8
    Codec ID/Info               : UTF-8 Plain Text
    Duration                    : 2 h 1 min
    Bit rate                    : 40 b/s
    Count of elements           : 1537
    Stream size                 : 36.0 KiB (0%)
    Title                       : Español-SRT [CinemaniaHDD]
    Language                    : Spanish
    Default                     : No
    Forced                      : No

    Text #3
    ID                          : 7
    Format                      : UTF-8
    Codec ID                    : S_TEXT/UTF8
    Codec ID/Info               : UTF-8 Plain Text
    Duration                    : 2 h 1 min
    Bit rate                    : 41 b/s
    Count of elements           : 1532
    Stream size                 : 37.4 KiB (0%)
    Title                       : Ingles-SRT [CinemaniaHDD]
    Language                    : English
    Default                     : No
    Forced                      : No

    Menu
    00:00:00.000                : Chapter 01
    00:02:42.996                : Chapter 02
    00:05:35.460                : Chapter 03
    00:07:57.435                : Chapter 04
    00:10:11.361                : Chapter 05
    00:14:30.578                : Chapter 06
    00:19:59.449                : Chapter 07
    00:23:07.220                : Chapter 08
    00:26:39.933                : Chapter 09
    00:32:36.498                : Chapter 10
    00:35:01.726                : Chapter 11
    00:40:32.390                : Chapter 12
    00:46:53.688                : Chapter 13
    00:49:06.029                : Chapter 14
    00:59:22.687                : Chapter 15
    01:07:44.064                : Chapter 16
    01:14:11.826                : Chapter 17
    01:17:21.266                : Chapter 18
    01:21:01.444                : Chapter 19
    01:24:26.316                : Chapter 20
    01:35:34.275                : Chapter 21
    01:45:08.350                : Chapter 22
    01:47:56.810                : Chapter 23
    01:50:08.108                : Chapter 24
    01:52:46.099                : Chapter 25
    01:55:11.911                : Chapter 26
    01:56:32.367                : Chapter 27

  • Peso: 10.3 GiB

Sinopsis

Descargar Ant-Man and the Wasp: Quantumania (2023) WEB-DL 1080p Latino. La pareja de superhéroes Scott Lang y Hope van Dyne regresa para continuar sus aventuras como Ant-Man y la Avispa. Los dos, junto a los padres de Hope, Hank Pym y Janet van Dyne y la hija de Scott, Cassie Lang, se dedican a explorar el Mundo Cuántico, interactuando con nuevas y extrañas criaturas y embarcándose en una aventura que les llevará más allá de los límites de lo que creían posible.

Español Latino EAC3 7.1 & AC3 5.1 Web – Ingles EAC3 JOC 5.1 Web

Ficha técnica

Video trailer de la película

Enlaces de descarga

Rip de Bluray

Descargar Ant-Man and the Wasp: Quantumania (2023) WEB-DL 1080p Latino




Aportes de DPeliculasHDmega la pass es:dpeliculashdmega.org Aportes de CinemaniaHD la pass es:cinemaniahdd.com Aportes recientes:cinemaniahdd.net
Guardado en : Acción , Aventura , Ciencia ficción

Películas relacionadas

descargar Ant-Man and the Wasp: Quantumania (2023) WEB-DL 1080p Latino WEBDL 1080p gratis, Ant-Man and the Wasp: Quantumania (2023) WEB-DL 1080p Latino WEBDL mega 1 link, Ant-Man and the Wasp: Quantumania (2023) WEB-DL 1080p Latino WEBDL pelicula completa, descargar Ant-Man and the Wasp: Quantumania (2023) WEB-DL 1080p Latino WEBDL gratis en mega.

Ant-Man and the Wasp: Quantumania (2023) WEB-DL 1080p Latino pelicula full hd, Ant-Man and the Wasp: Quantumania (2023) WEB-DL 1080p Latino mega latino, Ant-Man and the Wasp: Quantumania (2023) WEB-DL 1080p Latino 4k latino, Ant-Man and the Wasp: Quantumania (2023) WEB-DL 1080p Latino pelicula completa, Ant-Man and the Wasp: Quantumania (2023) WEB-DL 1080p Latino descargar gratis, descargar Ant-Man and the Wasp: Quantumania (2023) WEB-DL 1080p Latino pelicula latino, Ant-Man and the Wasp: Quantumania (2023) WEB-DL 1080p Latino 1 link mega, Ant-Man and the Wasp: Quantumania (2023) WEB-DL 1080p Latino 1 link google drive, Ant-Man and the Wasp: Quantumania (2023) WEB-DL 1080p Latino hd 1080p latino.
Comentarios 0