×

¿Problemas para descargar con Mozilla, EDGE? Deshabilita la opción "Abrir vinculos en una pestaña nueva" tal como lo muestra ésta imagen.

Ant-Man and the Wasp: Quantumania (2023) PLACEBO Full HD 1080p Latino

75 vistas

Información de Ant-Man and the Wasp: Quantumania (2023) PLACEBO Full HD 1080p Latino

Datos de la película

  • Calidad: Full 1080p
  • Audio: Se especifica abajo de la Sinopsis
  • Subtitulos: Español Latino PGS - Ingles PGS
  • Resolución: 1920x1080p
  • Formato: MKV
  • Codec: H.264
  • Encoder: Melkor
  • Mediainfo: Clic para Mostrar Datos Ver
  • Ant-Man and the Wasp Quantumania (2023) PLACEBO 1080p Latino.mkv
    Format                      : Matroska
    Format version              : Version 4
    File size                   : 5.58 GiB
    Duration                    : 2 h 4 min
    Overall bit rate            : 6 419 kb/s
    Movie name                  : Ant Man and the Wasp. Quantumania (2023) CinemaniaHDD.Net
    Encoded date                : UTC 2023-05-12 14:24:19
    Writing application         : mkvmerge v56.1.0 ('My Friend') 64-bit
    Writing library             : libebml v1.4.2 + libmatroska v1.6.4
    Attachments                 : CINEMANIAHD.png
    Site                        : CinemaniaHDD.Net
    Uploader                    : Melkor

    Video
    ID                          : 1
    Format                      : AVC
    Format/Info                 : Advanced Video Codec
    Format profile              : High@L4.1
    Format settings             : CABAC / 4 Ref Frames
    Format settings, CABAC      : Yes
    Format settings, Reference  : 4 frames
    Codec ID                    : V_MPEG4/ISO/AVC
    Duration                    : 2 h 4 min
    Bit rate                    : 3 600 kb/s
    Width                       : 1 920 pixels
    Height                      : 1 080 pixels
    Display aspect ratio        : 16:9
    Frame rate mode             : Constant
    Frame rate                  : 23.976 (24000/1001) FPS
    Color space                 : YUV
    Chroma subsampling          : 4:2:0
    Bit depth                   : 8 bits
    Scan type                   : Progressive
    Bits/(Pixel*Frame)          : 0.072
    Stream size                 : 3.13 GiB (56%)
    Title                       : Full HD1080p [CinemaniaHDD]
    Writing library             : x264 core 163 r3059 b684ebe0
    Encoding settings           : cabac=1 / ref=4 / deblock=1:0:0 / analyse=0x3:0x133 / me=tesa / subme=11 / psy=1 / psy_rd=1.00:0.00 / mixed_ref=1 / me_range=24 / chroma_me=1 / trellis=2 / 8x8dct=1 / cqm=0 / deadzone=21,11 / fast_pskip=0 / chroma_qp_offset=-2 / threads=24 / lookahead_threads=6 / sliced_threads=0 / nr=0 / decimate=1 / interlaced=0 / bluray_compat=0 / constrained_intra=0 / bframes=16 / b_pyramid=2 / b_adapt=2 / b_bias=0 / direct=3 / weightb=1 / open_gop=0 / weightp=2 / keyint=240 / keyint_min=24 / scenecut=40 / intra_refresh=0 / rc_lookahead=60 / rc=crf / mbtree=1 / crf=19.0 / qcomp=0.60 / qpmin=0 / qpmax=69 / qpstep=4 / vbv_maxrate=62500 / vbv_bufsize=78125 / crf_max=0.0 / nal_hrd=none / filler=0 / ip_ratio=1.40 / aq=1:1.00
    Default                     : Yes
    Forced                      : Yes
    Color range                 : Limited
    Color primaries             : BT.709
    Transfer characteristics    : BT.709
    Matrix coefficients         : BT.709

    Audio #1
    ID                          : 2
    ID in the original source m : 4355 (0x1103)
    Format                      : AC-3
    Format/Info                 : Audio Coding 3
    Commercial name             : Dolby Digital
    Codec ID                    : A_AC3
    Duration                    : 2 h 4 min
    Bit rate mode               : Constant
    Bit rate                    : 640 kb/s
    Channel(s)                  : 6 channels
    Channel layout              : L R C LFE Ls Rs
    Sampling rate               : 48.0 kHz
    Frame rate                  : 31.250 FPS (1536 SPF)
    Compression mode            : Lossy
    Stream size                 : 570 MiB (10%)
    Title                       : Español Latino AC3 [CinemaniaHDD]
    Language                    : Spanish
    Service kind                : Complete Main
    Default                     : Yes
    Forced                      : Yes
    Original source medium      : Blu-ray

    Audio #2
    ID                          : 3
    Format                      : E-AC-3
    Format/Info                 : Enhanced AC-3
    Commercial name             : Dolby Digital Plus
    Format settings             : Dolby Surround EX
    Codec ID                    : A_EAC3
    Duration                    : 2 h 4 min
    Bit rate mode               : Constant
    Bit rate                    : 640 kb/s
    Channel(s)                  : 8 channels
    Channel layout              : L R C LFE Ls Rs Lb Rb
    Sampling rate               : 48.0 kHz
    Frame rate                  : 31.250 FPS (1536 SPF)
    Compression mode            : Lossy
    Delay relative to video     : 11 ms
    Stream size                 : 570 MiB (10%)
    Title                       : Español Latino EAC3 [CinemaniaHDD]
    Language                    : Spanish
    Service kind                : Complete Main
    Default                     : No
    Forced                      : No

    Audio #3
    ID                          : 4
    Format                      : DTS
    Format/Info                 : Digital Theater Systems
    Codec ID                    : A_DTS
    Duration                    : 2 h 4 min
    Bit rate mode               : Constant
    Bit rate                    : 1 509 kb/s
    Channel(s)                  : 6 channels
    Channel layout              : C L R Ls Rs LFE
    Sampling rate               : 48.0 kHz
    Frame rate                  : 93.750 FPS (512 SPF)
    Bit depth                   : 24 bits
    Compression mode            : Lossy
    Stream size                 : 1.31 GiB (23%)
    Title                       : Ingles [CinemaniaHDD]
    Language                    : English
    Default                     : No
    Forced                      : No

    Text #1
    ID                          : 5
    ID in the original source m : 4615 (0x1207)
    Format                      : PGS
    Muxing mode                 : zlib
    Codec ID                    : S_HDMV/PGS
    Codec ID/Info               : Picture based subtitle format used on BDs/HD-DVDs
    Duration                    : 2 h 0 min
    Bit rate                    : 62 b/s
    Count of elements           : 6
    Stream size                 : 54.8 KiB (0%)
    Title                       : Forzados-PGS [CinemaniaHDD]
    Language                    : Spanish
    Default                     : No
    Forced                      : No
    Original source medium      : Blu-ray

    Text #2
    ID                          : 6
    ID in the original source m : 4610 (0x1202)
    Format                      : PGS
    Muxing mode                 : zlib
    Codec ID                    : S_HDMV/PGS
    Codec ID/Info               : Picture based subtitle format used on BDs/HD-DVDs
    Duration                    : 2 h 1 min
    Bit rate                    : 28.6 kb/s
    Count of elements           : 3076
    Stream size                 : 24.9 MiB (0%)
    Title                       : Español-PGS [CinemaniaHDD]
    Language                    : Spanish
    Default                     : No
    Forced                      : No
    Original source medium      : Blu-ray

    Text #3
    ID                          : 7
    ID in the original source m : 4608 (0x1200)
    Format                      : PGS
    Muxing mode                 : zlib
    Codec ID                    : S_HDMV/PGS
    Codec ID/Info               : Picture based subtitle format used on BDs/HD-DVDs
    Duration                    : 2 h 3 min
    Bit rate                    : 43.3 kb/s
    Count of elements           : 4316
    Stream size                 : 38.3 MiB (1%)
    Title                       : Ingles-PGS [CinemaniaHDD]
    Language                    : English
    Default                     : No
    Forced                      : No
    Original source medium      : Blu-ray

    Text #4
    ID                          : 8
    Format                      : UTF-8
    Codec ID                    : S_TEXT/UTF8
    Codec ID/Info               : UTF-8 Plain Text
    Duration                    : 2 h 0 min
    Bit rate                    : 0 b/s
    Count of elements           : 3
    Stream size                 : 61.0 Bytes (0%)
    Title                       : Forzados-SRT [CinemaniaHDD]
    Language                    : Spanish
    Default                     : Yes
    Forced                      : Yes

    Text #5
    ID                          : 9
    Format                      : UTF-8
    Codec ID                    : S_TEXT/UTF8
    Codec ID/Info               : UTF-8 Plain Text
    Duration                    : 2 h 1 min
    Bit rate                    : 40 b/s
    Count of elements           : 1537
    Stream size                 : 36.0 KiB (0%)
    Title                       : Español-SRT [CinemaniaHDD]
    Language                    : Spanish
    Default                     : No
    Forced                      : No

    Menu
    00:00:00.000                : Chapter 01
    00:02:41.995                : Chapter 02
    00:05:34.459                : Chapter 03
    00:07:56.434                : Chapter 04
    00:10:10.359                : Chapter 05
    00:14:29.577                : Chapter 06
    00:19:58.447                : Chapter 07
    00:23:06.218                : Chapter 08
    00:26:38.930                : Chapter 09
    00:32:35.495                : Chapter 10
    00:35:00.723                : Chapter 11
    00:40:31.387                : Chapter 12
    00:46:52.684                : Chapter 13
    00:49:05.025                : Chapter 14
    00:59:21.683                : Chapter 15
    01:07:43.059                : Chapter 16
    01:14:10.821                : Chapter 17
    01:17:20.260                : Chapter 18
    01:21:01.189                : Chapter 19
    01:24:25.727                : Chapter 20
    01:35:33.269                : Chapter 21
    01:45:07.342                : Chapter 22
    01:47:55.802                : Chapter 23
    01:50:07.100                : Chapter 24
    01:52:45.091                : Chapter 25
    01:55:10.904                : Chapter 26
    01:56:31.359                : Chapter 27

  • Peso: 5.58 GiB

Sinopsis

Descargar Ant-Man and the Wasp: Quantumania (2023) PLACEBO Full HD 1080p Latino. La pareja de superhéroes Scott Lang y Hope van Dyne regresa para continuar sus aventuras como Ant-Man y la Avispa. Los dos, junto a los padres de Hope, Hank Pym y Janet van Dyne y la hija de Scott, Cassie Lang, se dedican a explorar el Mundo Cuántico, interactuando con nuevas y extrañas criaturas y embarcándose en una aventura que les llevará más allá de los límites de lo que creían posible.

Español Latino AC3 5.1 BD & EAC3 7.1 Web – Ingles DTS 5.1 BD

Ficha técnica

Video trailer de la película

Enlaces de descarga

Rip de Bluray

Descargar Ant-Man and the Wasp: Quantumania (2023) PLACEBO Full HD 1080p Latino




Aportes de DPeliculasHDmega la pass es:dpeliculashdmega.org Aportes de CinemaniaHD la pass es:cinemaniahdd.com

Películas relacionadas

  • Sustitutos (2023) HD 1080p Latino

    Sustitutos (2023) HD 1080p Latino

    2023
    Sustitutos (2023) HD 1080p Latino

    1h 35m 2023

    Descargar Sustitutos (2023) HD 1080p Latino. Faye intenta reemplazar a su esposo recién fallecido, Evan,...

    Director: April Mullen

    Género: Ciencia ficción

    Actores: Zarrin Darnell-Martin

  • Sustitutos (2023) PLACEBO Full HD 1080p Latino

    Sustitutos (2023) PLACEBO Full HD 1080p Latino

    2023
    Sustitutos (2023) PLACEBO Full HD 1080p Latino

    1h 35m 2023

    Descargar Sustitutos (2023) PLACEBO Full HD 1080p Latino. Faye intenta reemplazar a su esposo recién...

    Director: April Mullen

    Género: Ciencia ficción

    Actores: Zarrin Darnell-Martin

  • Sustitutos (2023) REMUX 1080p Latino

    Sustitutos (2023) REMUX 1080p Latino

    2023
    Sustitutos (2023) REMUX 1080p Latino

    1h 35m 2023

    Descargar Sustitutos (2023) REMUX 1080p Latino. Faye intenta reemplazar a su esposo recién fallecido,...

    Director: April Mullen

    Género: Ciencia ficción

    Actores: Zarrin Darnell-Martin

  • The Mummy (1999) REMUX 4K HDR Latino – CMHDD

    The Mummy (1999) REMUX 4K HDR Latino – CMHDD

    1999
    The Mummy (1999) REMUX 4K HDR Latino – CMHDD

    2h 5m 1999

    El legionario Rick O'Connell y su socio descubren durante una batalla en Egipto las ruinas de Hamunaptra,...

    Director: Sylvie Chesneau

    Género: Acción

    Actores: Tuc Watkins

  • Patriot Games (1992) REMUX 4K HDR Latino – CMHDD

    Patriot Games (1992) REMUX 4K HDR Latino – CMHDD

    1992
    Patriot Games (1992) REMUX 4K HDR Latino – CMHDD

    1h 57m 1992

    Jack Ryan es un ex agente de la CIA. Salir de aquel mundillo, tan peculiar, donde el peligro y la acción...

    Director: Phillip Noyce

    Género: Acción

    Actores: Tom Watt

descargar Ant-Man and the Wasp: Quantumania (2023) PLACEBO Full HD 1080p Latino Full 1080p 1080p gratis, Ant-Man and the Wasp: Quantumania (2023) PLACEBO Full HD 1080p Latino Full 1080p mega 1 link, Ant-Man and the Wasp: Quantumania (2023) PLACEBO Full HD 1080p Latino Full 1080p pelicula completa, descargar Ant-Man and the Wasp: Quantumania (2023) PLACEBO Full HD 1080p Latino Full 1080p gratis en mega.

Ant-Man and the Wasp: Quantumania (2023) PLACEBO Full HD 1080p Latino pelicula full hd, Ant-Man and the Wasp: Quantumania (2023) PLACEBO Full HD 1080p Latino mega latino, Ant-Man and the Wasp: Quantumania (2023) PLACEBO Full HD 1080p Latino 4k latino, Ant-Man and the Wasp: Quantumania (2023) PLACEBO Full HD 1080p Latino pelicula completa, Ant-Man and the Wasp: Quantumania (2023) PLACEBO Full HD 1080p Latino descargar gratis, descargar Ant-Man and the Wasp: Quantumania (2023) PLACEBO Full HD 1080p Latino pelicula latino, Ant-Man and the Wasp: Quantumania (2023) PLACEBO Full HD 1080p Latino 1 link mega, Ant-Man and the Wasp: Quantumania (2023) PLACEBO Full HD 1080p Latino 1 link google drive, Ant-Man and the Wasp: Quantumania (2023) PLACEBO Full HD 1080p Latino hd 1080p latino.
Comentarios 0