×

¿Problemas para descargar con Mozilla, EDGE? Deshabilita la opción "Abrir vinculos en una pestaña nueva" tal como lo muestra ésta imagen.

Pinocchio (1940) REMUX 1080p Latino – CMHDD

308 vistas

Información de Pinocchio (1940) REMUX 1080p Latino – CMHDD

Datos de la película

  • Calidad:
  • Audio: Español Latino AC3 5.1 BLURAY - Ingles DTS-HD Master 7.1 BLURAY
  • Subtitulos: Español Latino SRT
  • Resolución: 1920x1080p
  • Formato: MKV
  • Codec: H.264
  • Encoder: Dracarys
  • Mediainfo: Clic para Mostrar Datos Ver
  • Format                      : Matroska
    Format version              : Version 4
    File size                   : 20.2 GiB
    Duration                    : 1 h 27 min
    Overall bit rate mode       : Variable
    Overall bit rate            : 33.0 Mb/s
    Movie name                  : Pinocchio (1940) REMUX 1080p Latino - CMHDD
    Encoded date                : UTC 2020-08-09 00:46:10
    Writing application         : mkvmerge v46.0.0 ('No Deeper Escape') 64-bit
    Writing library             : libebml v1.3.10 + libmatroska v1.5.2

    Video
    ID                          : 1
    Format                      : AVC
    Format/Info                 : Advanced Video Codec
    Format profile              : High@L4.1
    Format settings             : CABAC / 3 Ref Frames
    Format settings, CABAC      : Yes
    Format settings, Reference  : 3 frames
    Format settings, GOP        : M=3, N=24
    Codec ID                    : V_MPEG4/ISO/AVC
    Duration                    : 1 h 27 min
    Bit rate mode               : Variable
    Bit rate                    : 28.4 Mb/s
    Maximum bit rate            : 40.0 Mb/s
    Width                       : 1 920 pixels
    Height                      : 1 080 pixels
    Display aspect ratio        : 16:9
    Frame rate mode             : Constant
    Frame rate                  : 23.976 (24000/1001) FPS
    Color space                 : YUV
    Chroma subsampling          : 4:2:0
    Bit depth                   : 8 bits
    Scan type                   : Progressive
    Bits/(Pixel*Frame)          : 0.572
    Stream size                 : 17.4 GiB (86%)
    Default                     : Yes
    Forced                      : No

    Audio #1
    ID                          : 2
    Format                      : AC-3
    Format/Info                 : Audio Coding 3
    Commercial name             : Dolby Digital
    Codec ID                    : A_AC3
    Duration                    : 1 h 27 min
    Bit rate mode               : Constant
    Bit rate                    : 640 kb/s
    Channel(s)                  : 6 channels
    Channel layout              : L R C LFE Ls Rs
    Sampling rate               : 48.0 kHz
    Frame rate                  : 31.250 FPS (1536 SPF)
    Compression mode            : Lossy
    Delay relative to video     : 24 ms
    Stream size                 : 398 MiB (2%)
    Language                    : Spanish
    Service kind                : Complete Main
    Default                     : Yes
    Forced                      : No

    Audio #2
    ID                          : 3
    Format                      : AC-3
    Format/Info                 : Audio Coding 3
    Commercial name             : Dolby Digital
    Codec ID                    : A_AC3
    Duration                    : 1 h 27 min
    Bit rate mode               : Constant
    Bit rate                    : 448 kb/s
    Channel(s)                  : 6 channels
    Channel layout              : L R C LFE Ls Rs
    Sampling rate               : 48.0 kHz
    Frame rate                  : 31.250 FPS (1536 SPF)
    Compression mode            : Lossy
    Stream size                 : 281 MiB (1%)
    Language                    : Spanish
    Service kind                : Complete Main
    Default                     : No
    Forced                      : No

    Audio #3
    ID                          : 4
    Format                      : DTS XLL
    Format/Info                 : Digital Theater Systems
    Commercial name             : DTS-HD Master Audio
    Codec ID                    : A_DTS
    Duration                    : 1 h 27 min
    Bit rate mode               : Variable
    Bit rate                    : 3 446 kb/s
    Channel(s)                  : 8 channels
    Channel layout              : C L R LFE Lb Rb Lss Rss
    Sampling rate               : 48.0 kHz
    Frame rate                  : 93.750 FPS (512 SPF)
    Bit depth                   : 24 bits
    Compression mode            : Lossless
    Stream size                 : 2.11 GiB (10%)
    Language                    : English
    Default                     : No
    Forced                      : No

    Text #1
    ID                          : 5
    Format                      : PGS
    Muxing mode                 : zlib
    Codec ID                    : S_HDMV/PGS
    Codec ID/Info               : Picture based subtitle format used on BDs/HD-DVDs
    Duration                    : 1 h 26 min
    Bit rate                    : 25.6 kb/s
    Count of elements           : 2034
    Stream size                 : 15.9 MiB (0%)
    Language                    : Spanish
    Default                     : No
    Forced                      : No

    Text #2
    ID                          : 6
    Format                      : UTF-8
    Codec ID                    : S_TEXT/UTF8
    Codec ID/Info               : UTF-8 Plain Text
    Duration                    : 1 h 26 min
    Bit rate                    : 47 b/s
    Count of elements           : 1017
    Stream size                 : 29.9 KiB (0%)
    Language                    : Spanish
    Default                     : No
    Forced                      : No

  • Peso: 20.2 GiB

Sinopsis

Un anciano llamado Geppetto fabrica una marioneta de madera a la que llama Pinocho, con la esperanza de que se convierta en un niño de verdad. El Hada Azul hace realidad su deseo y da vida a Pinocho, pero conserva su cuerpo de madera. Pepito Grillo, la conciencia de Pinocho, tendrá que aconsejarlo para que se aleje de las situaciones difíciles o peligrosas hasta conseguir que el muñeco se convierta en un niño de carne y hueso.

Ficha técnica

Video trailer de la película

Enlaces de descarga

Rip de Bluray

Descargar Pinocchio (1940) REMUX 1080p Latino – CMHDD




Aportes de DPeliculasHDmega la pass es:dpeliculashdmega.org Aportes de CinemaniaHD la pass es:cinemaniahdd.com
Guardado en : Animación , Familia

Películas relacionadas

  • The Animatrix (2003) REMUX 1080p Latino

    The Animatrix (2003) REMUX 1080p Latino

    2003
    The Animatrix (2003) REMUX 1080p Latino

    1h 42m 2003

    Directamente de los creadores de la revolucionaria trilogía de Matrix, esta colección de cortos de...

    Director: Yoshiaki Kawajiri

    Género: Animación

    Actores: Victor Williams

  • Rick y Morty (2022) Temporada 6 WEB-DL 1080p Latino

    Rick y Morty (2022) Temporada 6 WEB-DL 1080p Latino

    2013
    Rick y Morty (2022) Temporada 6 WEB-DL 1080p Latino

    0h 22m 2013

    Comedia animada que narra las aventuras de un científico loco Rick Sánchez, que regresa después de...

    Director: Justin Roiland

    Género: Action & Adventure

    Actores: Spencer Grammer

  • Hogar a la deriva (2022) NF WEB-DL 1080p Latino

    Hogar a la deriva (2022) NF WEB-DL 1080p Latino

    2022
    Hogar a la deriva (2022) NF WEB-DL 1080p Latino

    2h 0m 2022

    Descargar Hogar a la deriva (2022) NF WEB-DL 1080p Latino. Un día de verano, Kosuke y sus amigos deciden...

    Director: Yo Watanabe

    Género: Animación

    Actores: Yumiko Kobayashi

  • Pinocho (2022) D+ WEB-DL 4K UHD HDR Latino

    Pinocho (2022) D+ WEB-DL 4K UHD HDR Latino

    2022
    Pinocho (2022) D+ WEB-DL 4K UHD HDR Latino

    1h 45m 2022

    Descargar Pinocho (2022) D+ WEB-DL 4K UHD HDR Latino. Recuento en acción viva y CGI del amado clásico...

    Director: Robert Zemeckis

    Género: 4K HDR

    Actores: Tom Hanks

descargar Pinocchio (1940) REMUX 1080p Latino – CMHDD 1080p gratis, Pinocchio (1940) REMUX 1080p Latino – CMHDD mega 1 link, Pinocchio (1940) REMUX 1080p Latino – CMHDD pelicula completa, descargar Pinocchio (1940) REMUX 1080p Latino – CMHDD gratis en mega.

Pinocchio (1940) REMUX 1080p Latino – CMHDD pelicula full hd, Pinocchio (1940) REMUX 1080p Latino – CMHDD mega latino, Pinocchio (1940) REMUX 1080p Latino – CMHDD 4k latino, Pinocchio (1940) REMUX 1080p Latino – CMHDD pelicula completa, Pinocchio (1940) REMUX 1080p Latino – CMHDD descargar gratis, descargar Pinocchio (1940) REMUX 1080p Latino – CMHDD pelicula latino, Pinocchio (1940) REMUX 1080p Latino – CMHDD 1 link mega, Pinocchio (1940) REMUX 1080p Latino – CMHDD 1 link google drive, Pinocchio (1940) REMUX 1080p Latino – CMHDD hd 1080p latino.
Comentarios 0