×

¿Problemas para descargar con Mozilla, EDGE? Deshabilita la opción "Abrir vinculos en una pestaña nueva" tal como lo muestra ésta imagen.

Olimpo Bajo Fuego (2013) Full HD 1080p Latino

2.047 vistas

Información de Olimpo Bajo Fuego (2013) Full HD 1080p Latino

Datos de la película

  • Calidad: Full 1080p
  • Audio: Español Latino AC3 5.1 Netflix - Ingles DTS 5.1 BLURAY
  • Subtitulos: Español Latino SRT - Ingles SRT
  • Resolución: 1920x1080p
  • Formato: MKV
  • Codec: H.264
  • Encoder: CinefiloCool
  • Mediainfo: Clic para Mostrar Datos Ver
  • Olimpo Bajo Fuego (2013) Full HD 1080p Latino-CMHDD.mkv
    Format                      : Matroska
    Format version              : Version 4
    File size                   : 5.66 GiB
    Duration                    : 1 h 59 min
    Overall bit rate            : 6 806 kb/s
    Movie name                  : CinemaniaHDD.Net
    Encoded date                : UTC 2019-11-17 00:34:40
    Writing application         : mkvmerge v38.0.0 ('The Silent Type') 64-bit
    Writing library             : libebml v1.3.9 + libmatroska v1.5.2
    Attachments                 : CINEMANIAHD.png

    Video
    ID                          : 1
    Format                      : AVC
    Format/Info                 : Advanced Video Codec
    Format profile              : High@L4.1
    Format settings             : CABAC / 4 Ref Frames
    Format settings, CABAC      : Yes
    Format settings, ReFrames   : 4 frames
    Codec ID                    : V_MPEG4/ISO/AVC
    Duration                    : 1 h 59 min
    Bit rate                    : 4 911 kb/s
    Width                       : 1 920 pixels
    Height                      : 1 080 pixels
    Display aspect ratio        : 16:9
    Frame rate mode             : Constant
    Frame rate                  : 24.000 FPS
    Color space                 : YUV
    Chroma subsampling          : 4:2:0
    Bit depth                   : 8 bits
    Scan type                   : Progressive
    Bits/(Pixel*Frame)          : 0.099
    Stream size                 : 4.09 GiB (72%)
    Title                       : Full HD1080p [Bluray]
    Writing library             : x264 core 157 r2935 545de2f
    Encoding settings           : cabac=1 / ref=4 / deblock=1:0:0 / analyse=0x3:0x133 / me=tesa / subme=11 / psy=1 / psy_rd=1.00:0.00 / mixed_ref=1 / me_range=24 / chroma_me=1 / trellis=2 / 8x8dct=1 / cqm=0 / deadzone=21,11 / fast_pskip=0 / chroma_qp_offset=-2 / threads=34 / lookahead_threads=8 / sliced_threads=0 / nr=0 / decimate=1 / interlaced=0 / bluray_compat=0 / constrained_intra=0 / bframes=16 / b_pyramid=2 / b_adapt=2 / b_bias=0 / direct=3 / weightb=1 / open_gop=0 / weightp=2 / keyint=240 / keyint_min=24 / scenecut=40 / intra_refresh=0 / rc_lookahead=60 / rc=crf / mbtree=1 / crf=20.0 / qcomp=0.60 / qpmin=0 / qpmax=69 / qpstep=4 / vbv_maxrate=62500 / vbv_bufsize=78125 / crf_max=0.0 / nal_hrd=none / filler=0 / ip_ratio=1.40 / aq=1:1.00
    Default                     : Yes
    Forced                      : Yes
    Color range                 : Limited
    Color primaries             : BT.709
    Transfer characteristics    : BT.709
    Matrix coefficients         : BT.709

    Audio #1
    ID                          : 2
    Format                      : AC-3
    Format/Info                 : Audio Coding 3
    Commercial name             : Dolby Digital
    Codec ID                    : A_AC3
    Duration                    : 1 h 59 min
    Bit rate mode               : Constant
    Bit rate                    : 384 kb/s
    Channel(s)                  : 6 channels
    Channel layout              : L R C LFE Ls Rs
    Sampling rate               : 48.0 kHz
    Frame rate                  : 31.250 FPS (1536 SPF)
    Bit depth                   : 16 bits
    Compression mode            : Lossy
    Stream size                 : 327 MiB (6%)
    Title                       : AC3_5.1_Web_Esp
    Language                    : Spanish
    Service kind                : Complete Main
    Default                     : Yes
    Forced                      : Yes

    Audio #2
    ID                          : 3
    Format                      : DTS
    Format/Info                 : Digital Theater Systems
    Codec ID                    : A_DTS
    Duration                    : 1 h 59 min
    Bit rate mode               : Constant
    Bit rate                    : 1 509 kb/s
    Channel(s)                  : 6 channels
    Channel layout              : C L R Ls Rs LFE
    Sampling rate               : 48.0 kHz
    Frame rate                  : 93.750 FPS (512 SPF)
    Bit depth                   : 24 bits
    Compression mode            : Lossy
    Stream size                 : 1.26 GiB (22%)
    Title                       : DTS_5.1_Bluray_Eng
    Language                    : English
    Default                     : No
    Forced                      : No

    Text #1
    ID                          : 4
    Format                      : UTF-8
    Codec ID                    : S_TEXT/UTF8
    Codec ID/Info               : UTF-8 Plain Text
    Duration                    : 1 h 49 min
    Bit rate                    : 52 b/s
    Count of elements           : 1258
    Stream size                 : 42.3 KiB (0%)
    Title                       : Sub_Esp
    Language                    : Spanish
    Default                     : No
    Forced                      : No

    Text #2
    ID                          : 5
    Format                      : UTF-8
    Codec ID                    : S_TEXT/UTF8
    Codec ID/Info               : UTF-8 Plain Text
    Duration                    : 1 h 48 min
    Bit rate                    : 47 b/s
    Count of elements           : 1243
    Stream size                 : 38.2 KiB (0%)
    Title                       : Sub_Eng
    Language                    : English
    Default                     : No
    Forced                      : No

    Menu
    00:00:00.000                : :00:00:00.000
    00:09:19.542                : :00:09:19.542
    00:17:49.750                : :00:17:49.750
    00:27:52.417                : :00:27:52.417
    00:38:11.708                : :00:38:11.708
    00:46:51.833                : :00:46:51.833
    00:57:37.000                : :00:57:37.000
    01:07:31.708                : :01:07:31.708
    01:19:48.875                : :01:19:48.875
    01:28:46.208                : :01:28:46.208
    01:38:14.125                : :01:38:14.125
    01:50:14.625                : :01:50:14.625

  • Peso: 5.66 GiB

Sinopsis

Descargar Olimpo Bajo Fuego (2013) Full HD 1080p Latino. Mike Banning (Gerard Butler) es un agente del Servicio Secreto estadounidense que, tras un accidente de coche en el que únicamente puede salvar la vida del presidente Asher (Aaron Eckhart), decide dejarlo para trabajar en el Departamento del Tesoro. Pero cuando un comando coreano liderado por Kang (Rick Yune) ataca la Casa Blanca tomando como rehenes al Presidente y su equipo, Banning se verá obligado a entrar de nuevo en acción.

Ficha técnica

Video trailer de la película

Enlaces de descarga

Rip de Bluray

Descargar Olimpo Bajo Fuego (2013) Full HD 1080p Latino




Aportes de DPeliculasHDmega la pass es:dpeliculashdmega.org Aportes de CinemaniaHD la pass es:cinemaniahdd.com

Películas relacionadas

  • Mi amigo el dragón (2016) Full HD 1080p Latino

    Mi amigo el dragón (2016) Full HD 1080p Latino

    2016
    Mi amigo el dragón (2016) Full HD 1080p Latino

    1h 43m 2016

    Descargar Mi amigo el dragón (2016) Full HD 1080p Latino. Durante años el Sr. Meacham, un viejo tallador...

    Director: Joe Nolan

    Género: Aventura

    Actores: William J. Rawbone

  • El discurso del Rey (2010) Full HD 1080p Latino

    El discurso del Rey (2010) Full HD 1080p Latino

    2010
    El discurso del Rey (2010) Full HD 1080p Latino

    1h 58m 2010

    Descargar El discurso del Rey (2010) Full HD 1080p Latino. El duque de York se convirtió en rey de Gran...

    Director: Tom Hooper

    Género: Drama

    Actores: Tony Earnshaw

  • Lucy (2014) REMUX 4K HDR Latino – CMHDD

    Lucy (2014) REMUX 4K HDR Latino – CMHDD

    2014
    Lucy (2014) REMUX 4K HDR Latino – CMHDD

    1h 30m 2014

    Lucy, una joven obligada a ejercer de mula de una nueva y potente droga, adquiere de repente enormes...

    Director: Luc Besson

    Género: Acción

    Actores: Wolfgang Pissors

descargar Olimpo Bajo Fuego (2013) Full HD 1080p Latino Full 1080p 1080p gratis, Olimpo Bajo Fuego (2013) Full HD 1080p Latino Full 1080p mega 1 link, Olimpo Bajo Fuego (2013) Full HD 1080p Latino Full 1080p pelicula completa, descargar Olimpo Bajo Fuego (2013) Full HD 1080p Latino Full 1080p gratis en mega.

Olimpo Bajo Fuego (2013) Full HD 1080p Latino pelicula full hd, Olimpo Bajo Fuego (2013) Full HD 1080p Latino mega latino, Olimpo Bajo Fuego (2013) Full HD 1080p Latino 4k latino, Olimpo Bajo Fuego (2013) Full HD 1080p Latino pelicula completa, Olimpo Bajo Fuego (2013) Full HD 1080p Latino descargar gratis, descargar Olimpo Bajo Fuego (2013) Full HD 1080p Latino pelicula latino, Olimpo Bajo Fuego (2013) Full HD 1080p Latino 1 link mega, Olimpo Bajo Fuego (2013) Full HD 1080p Latino 1 link google drive, Olimpo Bajo Fuego (2013) Full HD 1080p Latino hd 1080p latino.
Comentarios 1
  • Octavio Cesar posadas Martinez - 17 noviembre, 2019

    Muchisimas gracias, saludos