Neruda (2016) Full 1080p Latino

983 vistas
1 estrella2 estrellas3 estrellas4 estrellas5 estrellas (1 votos, promedio: 5,00 de 5)
Cargando…

Información de Neruda (2016) Full 1080p Latino

Datos de la película

  • Calidad: Full 1080p
  • Audio: Español AC3 5.1 BLURAY
  • Subtitulos: Español Latino PGS
  • Resolución: 1920x1080p
  • Formato: MKV
  • Codec: H.264
  • Encoder: Dpelis
  • Mediainfo: Clic para Mostrar Datos Ver
  • Neruda (2016) Full 1080p Latino.mkv
    Format                      : Matroska
    Format version              : Version 4 / Version 2
    File size                   : 2.87 GiB
    Duration                    : 1 h 48 min
    Overall bit rate            : 3 808 kb/s
    Movie name                  : DPeliculasHDMega.ORG
    Encoded date                : UTC 2017-09-24 23:31:19 / UTC 2017-09-23T02:16:42Z
    Writing application         : mkvmerge v10.0.0 ('To Drown In You') 64bit
    Writing library             : libebml v1.3.4 + libmatroska v1.4.5 / Lavf57.7.2

    Video
    ID                          : 1
    Format                      : AVC
    Format/Info                 : Advanced Video Codec
    Format profile              : High@L4.1
    Format settings, CABAC      : Yes
    Format settings, RefFrames  : 4 frames
    Codec ID                    : V_MPEG4/ISO/AVC
    Duration                    : 1 h 48 min
    Bit rate                    : 3 348 kb/s
    Width                       : 1 920 pixels
    Height                      : 1 080 pixels
    Display aspect ratio        : 16:9
    Frame rate mode             : Constant
    Frame rate                  : 24.000 FPS
    Color space                 : YUV
    Chroma subsampling          : 4:2:0
    Bit depth                   : 8 bits
    Scan type                   : Progressive
    Bits/(Pixel*Frame)          : 0.067
    Stream size                 : 2.53 GiB (88%)
    Writing library             : x264 core 148 r2708 86b7198
    Encoding settings           : cabac=1 / ref=4 / deblock=1:0:0 / analyse=0x3:0x133 / me=esa / subme=10 / psy=1 / psy_rd=1.00:0.00 / mixed_ref=1 / me_range=24 / chroma_me=1 / trellis=2 / 8x8dct=1 / cqm=0 / deadzone=21,11 / fast_pskip=1 / chroma_qp_offset=-2 / threads=34 / lookahead_threads=5 / sliced_threads=0 / nr=0 / decimate=1 / interlaced=0 / bluray_compat=0 / constrained_intra=0 / bframes=8 / b_pyramid=2 / b_adapt=2 / b_bias=0 / direct=3 / weightb=1 / open_gop=0 / weightp=2 / keyint=240 / keyint_min=24 / scenecut=40 / intra_refresh=0 / rc_lookahead=60 / rc=crf / mbtree=1 / crf=20.0 / qcomp=0.60 / qpmin=0 / qpmax=69 / qpstep=4 / vbv_maxrate=62500 / vbv_bufsize=78125 / crf_max=0.0 / nal_hrd=none / filler=0 / ip_ratio=1.40 / aq=1:1.00
    Default                     : Yes
    Forced                      : No
    Color range                 : Limited
    Color primaries             : BT.709
    Transfer characteristics    : BT.709
    Matrix coefficients         : BT.709
    Statistics Tags Issue       : mkvmerge v10.0.0 ('To Drown In You') 64bit 2017-09-24 23:31:19 / mkvmerge v10.0.0 ('To Drown In You') 64bit 2017-09-24 23:31:19 / UTC 2017-09-23T02:16:42Z
    FromStats_BitRate           : 3421264
    FromStats_Duration          : 01:48:02.959000000
    FromStats_FrameCount        : 155591
    FromStats_StreamSize        : 2772489939

    Audio
    ID                          : 2
    Format                      : AC-3
    Format/Info                 : Audio Coding 3
    Format settings, Endianness : Big
    Codec ID                    : A_AC3
    Duration                    : 1 h 48 min
    Bit rate mode               : Constant
    Bit rate                    : 384 kb/s
    Channel(s)                  : 6 channels
    Channel positions           : Front: L C R, Side: L R, LFE
    Sampling rate               : 48.0 kHz
    Frame rate                  : 31.250 FPS (1536 SPF)
    Bit depth                   : 16 bits
    Compression mode            : Lossy
    Delay relative to video     : 16 ms
    Stream size                 : 297 MiB (10%)
    Title                       : Surround
    Language                    : Spanish
    Service kind                : Complete Main
    Default                     : Yes
    Forced                      : No
    Statistics Tags Issue       : mkvmerge v10.0.0 ('To Drown In You') 64bit 2017-09-24 23:31:19 / mkvmerge v10.0.0 ('To Drown In You') 64bit 2017-09-24 23:31:19 / UTC 2017-09-23T02:16:42Z
    FromStats_BitRate           : 384298
    FromStats_Duration          : 01:48:03.008000000
    FromStats_FrameCount        : 202594
    FromStats_StreamSize        : 311426048

    Text #1
    ID                          : 3
    Format                      : PGS
    Muxing mode                 : zlib
    Codec ID                    : S_HDMV/PGS
    Codec ID/Info               : Picture based subtitle format used on BDs/HD-DVDs
    Language                    : Spanish
    Default                     : No
    Forced                      : No
    Statistics Tags Issue       : mkvmerge v10.0.0 ('To Drown In You') 64bit 2017-09-24 23:31:19 / mkvmerge v10.0.0 ('To Drown In You') 64bit 2017-09-24 23:31:19 / UTC 2017-09-23T02:16:42Z
    FromStats_BitRate           : 469
    FromStats_Duration          : 01:16:18.496000000
    FromStats_FrameCount        : 84
    FromStats_StreamSize        : 268425

    Text #2
    ID                          : 4
    Format                      : UTF-8
    Codec ID                    : S_TEXT/UTF8
    Codec ID/Info               : UTF-8 Plain Text
    Language                    : Spanish
    Default                     : No
    Forced                      : No
    Statistics Tags Issue       : mkvmerge v10.0.0 ('To Drown In You') 64bit 2017-09-24 23:31:19 / mkvmerge v10.0.0 ('To Drown In You') 64bit 2017-09-24 23:31:19 / UTC 2017-09-23T02:16:42Z
    FromStats_BitRate           : 2
    FromStats_Duration          : 01:16:18.496000000
    FromStats_FrameCount        : 42
    FromStats_StreamSize        : 1578

    Menu
    00:13:40.083                : :Chapter 2
    00:25:13.583                : :Chapter 3
    00:37:54.458                : :Chapter 4
    00:53:34.583                : :Chapter 5
    01:06:22.542                : :Chapter 6
    01:20:02.708                : :Chapter 7
    01:37:05.500                : :Chapter 8

  • Peso: 2.87 GB

Sinopsis

Es 1948 y la Guerra Fría ha llegado a Chile. En el Congreso, el Senador Pablo Neruda acusa al gobierno de traición y es rápidamente destituido por el Presidente Videla (Castro). El director de la Policía de Investigaciones Óscar Peluchonneau es asignado para detener al poeta. Neruda intenta huir del país con su esposa Delia del Carril, pero se ven obligados a esconderse. En la lucha con su némesis Peluchonneau, Neruda ve una oportunidad para reinventarse. Juega con el Director de la Policía, dejando pistas orientadas para hacer su juego del gato y el ratón más peligroso e íntimo. En esta historia de persecución, Neruda identifica sus propias posibilidades heroicas: la oportunidad de convertirse tanto en símbolo de la libertad como en una leyenda literaria.

SOLO AUDIO TRUEHD 7.1

 

Ficha técnica

  • Titulo original: Neruda
  • Fecha de lanzamiento: 17-06-2016 (Argentina, Chile, France, Spain, United States of America)
  • Director: Pablo Larraín
  • Género: Drama
  • Puntuación: 5.0 1 votos
  • Duración:
    1h 47m

Video trailer de la película

Enlaces de descarga

Rip de Bluray

Descargar Neruda (2016) Full 1080p Latino




Aportes de DPeliculasHDmega la pass es:dpeliculashdmega.org Aportes de CinemaniaHD la pass es:cinemaniahdd.com
Guardado en : Drama

Películas relacionadas

  • Matar o morir (2018) 1080p Subtitulado

    2018
    Matar o morir (2018) 1080p Subtitulado

    5.0 1h 41m 2018

    Descargar Matar o morir [Peppermint] (2018) 1080p Subtitulado, Mega, Google Drive. LRiley North (Jennifer...

    Director: Pierre Morel

    Género: Acción

    Actores: YaYa Gosselin

  • Crimenes Oscuros (2016) 1080p Latino

    2018
    Crimenes Oscuros (2016) 1080p Latino

    0.0 1h 32m 2018

    Descargar Crimenes Oscuros (2016) 1080p Latino, Mega Google Drive. Un detective de homicidios encuentra...

    Director: Alexandros Avranas

    Género: Crimen

    Actores: Zygmunt Jozefczak

  • Vikingos Temporada 5 (2017) WEB-DL Amazon 1080p Latino

    2017
    Vikingos Temporada 5 (2017) WEB-DL Amazon 1080p Latino

    3.0 0h 44m 2017

    Sigue las aventuras de Ragnar Lothbrok, el héroe más grande de su época. La serie narra las sagas...

    Director: Michael Hirst

    Género: Action & Adventure

    Actores: Moe Dunford

  • Mowgli: La leyenda de la selva (2018) NF 1080p Latino

    2018
    Mowgli: La leyenda de la selva (2018) NF 1080p Latino

    0.0 1h 44m 2018

    Mowgli: La leyenda de la selva (2018) NF 1080p Latino Google Drive Trata sobre la educación de Mowgli,...

    Director: Wendy Alport

    Género: Aventura

    Actores: Tom Hollander

Comentarios 3
  • slash - 26 septiembre, 2017

    Gracias Cine, me parece excelente esa opción que estas poniendo con los audios, así las personas si solo quieren bajar la película a un peso determinado les vendrá bien, y si quieren añadirle el audio para una mejor experiencia de sonido de seguro les gustara este plus.

    • dpelis - 26 septiembre, 2017

      si estimado.

  • seba - 25 septiembre, 2017

    que gran aporte, y mas en caratula gris y en poco peso. Perfecto.

    gracias.