×

¿Problemas para descargar con Mozilla, EDGE? Deshabilita la opción "Abrir vinculos en una pestaña nueva" tal como lo muestra ésta imagen.

Morbius (2022) REMUX 4K HDR Latino – CMHDD

375 vistas

Información de Morbius (2022) REMUX 4K HDR Latino – CMHDD

Datos de la película

  • Calidad: 4K HDR
  • Audio: Se especifica abajo de la Sinopsis
  • Subtitulos: Español Latino PGS
  • Resolución: 3840x2160p
  • Formato: MKV
  • Codec: H.264
  • Encoder: Dracarys
  • Mediainfo: Clic para Mostrar Datos Ver
  • Format                      : Matroska
    Format version              : Version 4
    File size                   : 41.6 GiB
    Duration                    : 1 h 44 min
    Overall bit rate mode       : Variable
    Overall bit rate            : 57.2 Mb/s
    Movie name                  : Morbius (2022) REMUX 4K HDR Latino - CMHDD
    Encoded date                : UTC 2022-06-29 01:22:44
    Writing application         : mkvmerge v17.0.0 ('Be Ur Friend') 64-bit
    Writing library             : libebml v1.3.5 + libmatroska v1.4.8

    Video
    ID                          : 1
    Format                      : HEVC
    Format/Info                 : High Efficiency Video Coding
    Format profile              : Main 10@L5.1@High
    HDR format                  : SMPTE ST 2086, HDR10 compatible
    Codec ID                    : V_MPEGH/ISO/HEVC
    Duration                    : 1 h 44 min
    Bit rate                    : 51.8 Mb/s
    Width                       : 3 840 pixels
    Height                      : 2 160 pixels
    Display aspect ratio        : 16:9
    Frame rate mode             : Constant
    Frame rate                  : 23.976 (24000/1001) FPS
    Color space                 : YUV
    Chroma subsampling          : 4:2:0 (Type 2)
    Bit depth                   : 10 bits
    Bits/(Pixel*Frame)          : 0.261
    Stream size                 : 37.7 GiB (91%)
    Default                     : Yes
    Forced                      : No
    Color range                 : Limited
    Color primaries             : BT.2020
    Transfer characteristics    : PQ
    Matrix coefficients         : BT.2020 non-constant
    Mastering display color pri : Display P3
    Mastering display luminance : min: 0.0050 cd/m2, max: 4000 cd/m2
    Maximum Content Light Level : 1098 cd/m2
    Maximum Frame-Average Light : 297 cd/m2

    Audio #1
    ID                          : 2
    Format                      : MLP FBA 16-ch
    Format/Info                 : Meridian Lossless Packing FBA with 16-channel presentation
    Commercial name             : Dolby TrueHD with Dolby Atmos
    Codec ID                    : A_TRUEHD
    Duration                    : 1 h 44 min
    Bit rate mode               : Variable
    Bit rate                    : 4 696 kb/s
    Maximum bit rate            : 7 740 kb/s
    Channel(s)                  : 8 channels
    Channel layout              : L R C LFE Ls Rs Lb Rb
    Sampling rate               : 48.0 kHz
    Frame rate                  : 1 200.000 FPS (40 SPF)
    Compression mode            : Lossless
    Stream size                 : 3.42 GiB (8%)
    Language                    : English
    Default                     : No
    Forced                      : No
    Number of dynamic objects   : 11
    Bed channel count           : 1 channel
    Bed channel configuration   : LFE

    Audio #2
    ID                          : 3
    Format                      : AC-3
    Format/Info                 : Audio Coding 3
    Commercial name             : Dolby Digital
    Codec ID                    : A_AC3
    Duration                    : 1 h 44 min
    Bit rate mode               : Constant
    Bit rate                    : 640 kb/s
    Channel(s)                  : 6 channels
    Channel layout              : L R C LFE Ls Rs
    Sampling rate               : 48.0 kHz
    Frame rate                  : 31.250 FPS (1536 SPF)
    Compression mode            : Lossy
    Stream size                 : 477 MiB (1%)
    Language                    : Spanish
    Service kind                : Complete Main
    Default                     : Yes
    Forced                      : No

    Text
    ID                          : 4
    Format                      : PGS
    Muxing mode                 : zlib
    Codec ID                    : S_HDMV/PGS
    Codec ID/Info               : Picture based subtitle format used on BDs/HD-DVDs
    Duration                    : 1 h 41 min
    Bit rate                    : 21.9 kb/s
    Count of elements           : 1874
    Stream size                 : 15.8 MiB (0%)
    Language                    : Spanish
    Default                     : No
    Forced                      : No

    Menu
    00:00:00.000                : en:Chapter 1
    00:05:06.931                : en:Chapter 2
    00:10:15.823                : en:Chapter 3
    00:16:57.349                : en:Chapter 4
    00:21:36.753                : en:Chapter 5
    00:27:58.385                : en:Chapter 6
    00:32:58.476                : en:Chapter 7
    00:38:04.156                : en:Chapter 8
    00:43:17.761                : en:Chapter 9
    00:48:58.101                : en:Chapter 10
    00:55:10.557                : en:Chapter 11
    01:01:11.876                : en:Chapter 12
    01:05:28.424                : en:Chapter 13
    01:13:07.049                : en:Chapter 14
    01:20:06.384                : en:Chapter 15
    01:26:32.729                : en:Chapter 16

  • Peso: 41.6 GiB

Sinopsis

Peligrosamente enfermo de un extraño trastorno sanguíneo, y determinado a salvar a otras personas que padecen su mismo destino, el doctor Morbius intenta una apuesta desesperada. Lo que en un principio parece ser un éxito radical, pronto se revela como un remedio potencialmente peor que la enfermedad.

 

Latino: AC3 5.1  –  Ingés: TrueHD 7.1

Ficha técnica

Video trailer de la película

Enlaces de descarga

Rip de Bluray

Descargar Morbius (2022) REMUX 4K HDR Latino – CMHDD


Aportes de DPeliculasHDmega la pass es:dpeliculashdmega.org Aportes de CinemaniaHD la pass es:cinemaniahdd.com

Películas relacionadas

Morbius (2022) REMUX 4K HDR Latino – CMHDD pelicula full hd, Morbius (2022) REMUX 4K HDR Latino – CMHDD mega latino, Morbius (2022) REMUX 4K HDR Latino – CMHDD 4k latino, Morbius (2022) REMUX 4K HDR Latino – CMHDD pelicula completa, Morbius (2022) REMUX 4K HDR Latino – CMHDD descargar gratis, descargar Morbius (2022) REMUX 4K HDR Latino – CMHDD pelicula latino, Morbius (2022) REMUX 4K HDR Latino – CMHDD 1 link mega, Morbius (2022) REMUX 4K HDR Latino – CMHDD 1 link google drive, Morbius (2022) REMUX 4K HDR Latino – CMHDD hd 1080p latino.
Comentarios 0