×

¿Problemas para descargar con Mozilla, EDGE? Deshabilita la opción "Abrir vinculos en una pestaña nueva" tal como lo muestra ésta imagen.

Monsters University (2013) REMUX 4K HDR Latino – CMHDD

117 vistas

Información de Monsters University (2013) REMUX 4K HDR Latino – CMHDD

Datos de la película

  • Calidad: 4K HDR
  • Audio: Se especifica abajo de la Sinopsis
  • Subtitulos: Español Latino PGS
  • Resolución: 3840x2160p
  • Formato: MKV
  • Codec: H.264
  • Encoder: Dracarys
  • Mediainfo: Clic para Mostrar Datos Ver
  • Format                      : Matroska
    Format version              : Version 4
    File size                   : 36.9 GiB
    Duration                    : 1 h 44 min
    Overall bit rate mode       : Variable
    Overall bit rate            : 50.6 Mb/s
    Movie name                  : Monsters University (2013) REMUX 4K HDR Latino - CMHDD
    Encoded date                : UTC 2022-05-15 20:58:41
    Writing application         : mkvmerge v17.0.0 ('Be Ur Friend') 64-bit
    Writing library             : libebml v1.3.5 + libmatroska v1.4.8

    Video
    ID                          : 1
    Format                      : HEVC
    Format/Info                 : High Efficiency Video Coding
    Format profile              : Main 10@L5.1@High
    HDR format                  : SMPTE ST 2086, HDR10 compatible
    Codec ID                    : V_MPEGH/ISO/HEVC
    Duration                    : 1 h 44 min
    Bit rate                    : 40.9 Mb/s
    Width                       : 3 840 pixels
    Height                      : 2 160 pixels
    Display aspect ratio        : 16:9
    Frame rate mode             : Constant
    Frame rate                  : 23.976 (23976/1000) FPS
    Original frame rate         : 23.976 (24000/1001) FPS
    Color space                 : YUV
    Chroma subsampling          : 4:2:0 (Type 2)
    Bit depth                   : 10 bits
    Bits/(Pixel*Frame)          : 0.205
    Stream size                 : 29.8 GiB (81%)
    Writing library             : ATEME Titan File 3.9.0 (4.9.0.0)        
    Default                     : Yes
    Forced                      : No
    Color range                 : Limited
    Color primaries             : BT.2020
    Transfer characteristics    : PQ
    Matrix coefficients         : BT.2020 non-constant
    Mastering display color pri : Display P3
    Mastering display luminance : min: 0.0000 cd/m2, max: 1000 cd/m2

    Audio #1
    ID                          : 2
    Format                      : MLP FBA 16-ch
    Format/Info                 : Meridian Lossless Packing FBA with 16-channel presentation
    Commercial name             : Dolby TrueHD with Dolby Atmos
    Codec ID                    : A_TRUEHD
    Duration                    : 1 h 44 min
    Bit rate mode               : Variable
    Bit rate                    : 7 400 kb/s
    Maximum bit rate            : 9 756 kb/s
    Channel(s)                  : 8 channels
    Channel layout              : L R C LFE Ls Rs Lb Rb
    Sampling rate               : 48.0 kHz
    Frame rate                  : 1 200.000 FPS (40 SPF)
    Compression mode            : Lossless
    Stream size                 : 5.39 GiB (15%)
    Language                    : English
    Default                     : No
    Forced                      : No
    Number of dynamic objects   : 13
    Bed channel count           : 1 channel
    Bed channel configuration   : LFE

    Audio #2
    ID                          : 3
    Format                      : AC-3
    Format/Info                 : Audio Coding 3
    Commercial name             : Dolby Digital
    Codec ID                    : A_AC3
    Duration                    : 1 h 44 min
    Bit rate mode               : Constant
    Bit rate                    : 640 kb/s
    Channel(s)                  : 6 channels
    Channel layout              : L R C LFE Ls Rs
    Sampling rate               : 48.0 kHz
    Frame rate                  : 31.250 FPS (1536 SPF)
    Compression mode            : Lossy
    Stream size                 : 478 MiB (1%)
    Language                    : English
    Service kind                : Complete Main
    Default                     : No
    Forced                      : No

    Audio #3
    ID                          : 4
    Format                      : E-AC-3
    Format/Info                 : Enhanced AC-3
    Commercial name             : Dolby Digital Plus
    Format profile              : Blu-ray Disc
    Codec ID                    : A_EAC3
    Duration                    : 1 h 44 min
    Bit rate mode               : Constant
    Bit rate                    : 1 024 kb/s
    Channel(s)                  : 6 channels
    Channel(s)_Original         : 8 channels
    ChannelLayout_Original      : L R C LFE Ls Rs Lrs Rrs
    Sampling rate               : 48.0 kHz
    Frame rate                  : 31.250 FPS (1536 SPF)
    Compression mode            : Lossy
    Stream size                 : 764 MiB (2%)
    Language                    : English
    Service kind                : Complete Main
    Default                     : No
    Forced                      : No

    Audio #4
    ID                          : 5
    Format                      : AC-3
    Format/Info                 : Audio Coding 3
    Commercial name             : Dolby Digital
    Codec ID                    : A_AC3
    Duration                    : 1 h 44 min
    Bit rate mode               : Constant
    Bit rate                    : 640 kb/s
    Channel(s)                  : 6 channels
    Channel layout              : L R C LFE Ls Rs
    Sampling rate               : 48.0 kHz
    Frame rate                  : 31.250 FPS (1536 SPF)
    Compression mode            : Lossy
    Stream size                 : 478 MiB (1%)
    Language                    : Spanish
    Service kind                : Complete Main
    Default                     : Yes
    Forced                      : No

    Text
    ID                          : 6
    Format                      : PGS
    Muxing mode                 : zlib
    Codec ID                    : S_HDMV/PGS
    Codec ID/Info               : Picture based subtitle format used on BDs/HD-DVDs
    Duration                    : 1 h 42 min
    Bit rate                    : 36.1 kb/s
    Count of elements           : 2454
    Stream size                 : 26.6 MiB (0%)
    Language                    : Spanish
    Default                     : No
    Forced                      : No

    Menu
    00:00:00.000                : en:Chapter 1
    00:06:27.386                : en:Chapter 2
    00:07:07.552                : en:Chapter 3
    00:10:54.779                : en:Chapter 4
    00:12:20.614                : en:Chapter 5
    00:16:10.636                : en:Chapter 6
    00:18:16.303                : en:Chapter 7
    00:19:38.260                : en:Chapter 8
    00:21:07.515                : en:Chapter 9
    00:23:44.297                : en:Chapter 10
    00:29:23.386                : en:Chapter 11
    00:30:40.129                : en:Chapter 12
    00:33:38.766                : en:Chapter 13
    00:36:31.647                : en:Chapter 14
    00:38:20.088                : en:Chapter 15
    00:39:23.235                : en:Chapter 16
    00:45:14.002                : en:Chapter 17
    00:47:15.498                : en:Chapter 18
    00:51:08.815                : en:Chapter 19
    00:55:21.859                : en:Chapter 20
    00:57:30.988                : en:Chapter 21
    01:01:42.906                : en:Chapter 22
    01:04:37.956                : en:Chapter 23
    01:07:33.673                : en:Chapter 24
    01:14:11.988                : en:Chapter 25
    01:18:08.516                : en:Chapter 26
    01:19:26.385                : en:Chapter 27
    01:23:54.069                : en:Chapter 28
    01:24:39.323                : en:Chapter 29
    01:28:00.899                : en:Chapter 30
    01:32:52.023                : en:Chapter 31
    01:34:24.699                : en:Chapter 32

  • Peso: 36.9 GiB

Sinopsis

Desde que era pequeño, Mike Wazowski ha soñado con ser asustador y sabe que los mejores asustadores estudian en Monstruos University (MU). Pero durante su primer semestre en MU, los planes de Mike se desmoronan cuando se cruza con el listillo de James P. Sullivan, un asustador nato. El descontrolado espíritu competitivo de la pareja hace que los dos sean expulsados del programa de asustadores de la Universidad. Entonces se dan cuenta de que si quieren cumplir sus sueños, tienen que trabajar en equipo junto con un grupo de monstruos marginados.

 

Latino; E-AC3 7.1  –  Inglés; True HD 7.1

Ficha técnica

Video trailer de la película

Enlaces de descarga

Rip de Bluray

Descargar Monsters University (2013) REMUX 4K HDR Latino – CMHDD


Aportes de DPeliculasHDmega la pass es:dpeliculashdmega.org Aportes de CinemaniaHD la pass es:cinemaniahdd.com
Guardado en : Animación , Familia

Películas relacionadas

descargar Monsters University (2013) REMUX 4K HDR Latino – CMHDD 4K HDR 1080p gratis, Monsters University (2013) REMUX 4K HDR Latino – CMHDD 4K HDR mega 1 link, Monsters University (2013) REMUX 4K HDR Latino – CMHDD 4K HDR pelicula completa, descargar Monsters University (2013) REMUX 4K HDR Latino – CMHDD 4K HDR gratis en mega.

Monsters University (2013) REMUX 4K HDR Latino – CMHDD pelicula full hd, Monsters University (2013) REMUX 4K HDR Latino – CMHDD mega latino, Monsters University (2013) REMUX 4K HDR Latino – CMHDD 4k latino, Monsters University (2013) REMUX 4K HDR Latino – CMHDD pelicula completa, Monsters University (2013) REMUX 4K HDR Latino – CMHDD descargar gratis, descargar Monsters University (2013) REMUX 4K HDR Latino – CMHDD pelicula latino, Monsters University (2013) REMUX 4K HDR Latino – CMHDD 1 link mega, Monsters University (2013) REMUX 4K HDR Latino – CMHDD 1 link google drive, Monsters University (2013) REMUX 4K HDR Latino – CMHDD hd 1080p latino.
Comentarios 0