×

¿Problemas para descargar con Mozilla, EDGE? Deshabilita la opción "Abrir vinculos en una pestaña nueva" tal como lo muestra ésta imagen.

Man on Fire (2004) [Open Mate] AMZN WEB-DL 1080p Latino

1.019 vistas

Información de Man on Fire (2004) [Open Mate] AMZN WEB-DL 1080p Latino

Datos de la película

  • Calidad:
  • Audio: Español Latino E-AC3 5.1 AMAZON - Ingles E-AC3 5.1 AMAZON
  • Subtitulos: Español Latino SRT- FORZADOS SRT
  • Resolución: 1920x1080
  • Formato: MKV
  • Codec: H.264
  • Encoder: cinemaniahdd
  • Mediainfo: Clic para Mostrar Datos Ver
  • Man on Fire (2004) [Open Mate] AMZN WEB-DL 1080p Latino.mkv
    Format                      : Matroska
    Format version              : Version 4
    File size                   : 15.2 GiB
    Duration                    : 2 h 26 min
    Overall bit rate mode       : Variable
    Overall bit rate            : 14.9 Mb/s
    Movie name                  : Hombre en Llamas (2004) - CinemaniaHDD.Net
    Encoded date                : UTC 2020-04-20 00:06:54
    Writing application         : mkvmerge v42.0.0 ('Overtime') 64-bit
    Writing library             : libebml v1.3.10 + libmatroska v1.5.2

    Video
    ID                          : 1
    Format                      : AVC
    Format/Info                 : Advanced Video Codec
    Format profile              : High@L4
    Format settings             : CABAC / 4 Ref Frames
    Format settings, CABAC      : Yes
    Format settings, ReFrames   : 4 frames
    Codec ID                    : V_MPEG4/ISO/AVC
    Duration                    : 2 h 26 min
    Bit rate mode               : Variable
    Bit rate                    : 13.6 Mb/s
    Maximum bit rate            : 15.0 Mb/s
    Width                       : 1 920 pixels
    Height                      : 1 080 pixels
    Display aspect ratio        : 16:9
    Frame rate mode             : Constant
    Frame rate                  : 23.976 (24000/1001) FPS
    Color space                 : YUV
    Chroma subsampling          : 4:2:0
    Bit depth                   : 8 bits
    Scan type                   : Progressive
    Bits/(Pixel*Frame)          : 0.274
    Stream size                 : 13.9 GiB (91%)
    Title                       : CinemaniaHDD
    Default                     : Yes
    Forced                      : No
    Color range                 : Limited
    Color primaries             : BT.709
    Transfer characteristics    : BT.709
    Matrix coefficients         : BT.709

    Audio #1
    ID                          : 2
    Format                      : E-AC-3
    Format/Info                 : Enhanced AC-3
    Commercial name             : Dolby Digital Plus
    Codec ID                    : A_EAC3
    Duration                    : 2 h 26 min
    Bit rate mode               : Constant
    Bit rate                    : 640 kb/s
    Channel(s)                  : 6 channels
    Channel layout              : L R C LFE Ls Rs
    Sampling rate               : 48.0 kHz
    Frame rate                  : 31.250 FPS (1536 SPF)
    Compression mode            : Lossy
    Stream size                 : 669 MiB (4%)
    Title                       : Español latino [CinemaniaHDD]
    Language                    : Spanish
    Service kind                : Complete Main
    Default                     : Yes
    Forced                      : No

    Audio #2
    ID                          : 3
    Format                      : E-AC-3
    Format/Info                 : Enhanced AC-3
    Commercial name             : Dolby Digital Plus
    Codec ID                    : A_EAC3
    Duration                    : 2 h 26 min
    Bit rate mode               : Constant
    Bit rate                    : 640 kb/s
    Channel(s)                  : 6 channels
    Channel layout              : L R C LFE Ls Rs
    Sampling rate               : 48.0 kHz
    Frame rate                  : 31.250 FPS (1536 SPF)
    Compression mode            : Lossy
    Stream size                 : 669 MiB (4%)
    Title                       : Inglés [CinemaniaHDD]
    Language                    : English
    Service kind                : Complete Main
    Default                     : No
    Forced                      : No

    Text #1
    ID                          : 4
    Format                      : UTF-8
    Codec ID                    : S_TEXT/UTF8
    Codec ID/Info               : UTF-8 Plain Text
    Duration                    : 2 h 18 min
    Bit rate                    : 0 b/s
    Count of elements           : 24
    Stream size                 : 976 Bytes (0%)
    Title                       : Forzados [CinemaniaHDD]
    Language                    : Spanish
    Default                     : Yes
    Forced                      : Yes

    Text #2
    ID                          : 5
    Format                      : UTF-8
    Codec ID                    : S_TEXT/UTF8
    Codec ID/Info               : UTF-8 Plain Text
    Duration                    : 2 h 18 min
    Bit rate                    : 32 b/s
    Count of elements           : 891
    Stream size                 : 32.9 KiB (0%)
    Title                       : Español latino [CinemaniaHDD]
    Language                    : Spanish
    Default                     : No
    Forced                      : No

    Text #3
    ID                          : 6
    Format                      : UTF-8
    Codec ID                    : S_TEXT/UTF8
    Codec ID/Info               : UTF-8 Plain Text
    Duration                    : 2 h 13 min
    Bit rate                    : 41 b/s
    Count of elements           : 1232
    Stream size                 : 40.7 KiB (0%)
    Title                       : Inglés [CinemaniaHDD]
    Language                    : English
    Default                     : No
    Forced                      : No

     

  • Peso: 15.2 GiB

Sinopsis

México D.F. Un agente del gobierno (Washington) decepcionado con su vida, acepta a regañadientes un trabajo que consiste en proteger a una niña (Dakota Fanning) cuyos padres han recibido amenazas de secuestro. La relación con su pequeña protegida irá creciendo hasta despertar en él un espíritu perdido. Pero cuando la niña es secuestrada, su rabia se desatará contra los responsables… Versión de «Bala blindada» (Man on Fire), filme francés dirigido por Elie Chouraqui en 1987.

Ficha técnica

Video trailer de la película

Enlaces de descarga

Rip de Bluray

Descargar Man on Fire (2004) [Open Mate] AMZN WEB-DL 1080p Latino




Aportes de DPeliculasHDmega la pass es:dpeliculashdmega.org Aportes de CinemaniaHD la pass es:cinemaniahdd.com
Guardado en : Acción , Drama , OPEN MATTE , Suspenso

Películas relacionadas

  • Paradise Highway (2022) HD 1080p Latino

    Paradise Highway (2022) HD 1080p Latino

    2022
    Paradise Highway (2022) HD 1080p Latino

    1h 55m 2022

    Descargar Paradise Highway (2022) HD 1080p Latino. Un camionero se ha visto obligado a pasar de contrabando...

    Director: Anna Gutto

    Género: Crimen

    Actores: Xavier Scott Evans

  • Paradise Highway (2022) PLACEBO Full HD 1080p Latino

    Paradise Highway (2022) PLACEBO Full HD 1080p Latino

    2022
    Paradise Highway (2022) PLACEBO Full HD 1080p Latino

    1h 55m 2022

    Descargar Paradise Highway (2022) PLACEBO Full HD 1080p Latino. Un camionero se ha visto obligado a pasar...

    Director: Anna Gutto

    Género: Crimen

    Actores: Xavier Scott Evans

  • Paradise Highway (2022) REMUX 1080p Latino

    Paradise Highway (2022) REMUX 1080p Latino

    2022
    Paradise Highway (2022) REMUX 1080p Latino

    1h 55m 2022

    Descargar Paradise Highway (2022) REMUX 1080p Latino. Un camionero se ha visto obligado a pasar de contrabando...

    Director: Anna Gutto

    Género: Crimen

    Actores: Xavier Scott Evans

  • Shotgun Wedding (2022) AMZN WEB-DL 1080p Latino

    Shotgun Wedding (2022) AMZN WEB-DL 1080p Latino

    2022
    Shotgun Wedding (2022) AMZN WEB-DL 1080p Latino

    1h 41m 2022

    Darcy y Tom reúnen a sus familias para la boda de destino definitiva, pero cuando toman como rehenes...

    Director: Jason Moore

    Género: Acción

    Actores: Steve Coulter

descargar Man on Fire (2004) [Open Mate] AMZN WEB-DL 1080p Latino 1080p gratis, Man on Fire (2004) [Open Mate] AMZN WEB-DL 1080p Latino mega 1 link, Man on Fire (2004) [Open Mate] AMZN WEB-DL 1080p Latino pelicula completa, descargar Man on Fire (2004) [Open Mate] AMZN WEB-DL 1080p Latino gratis en mega.

Man on Fire (2004) [Open Mate] AMZN WEB-DL 1080p Latino pelicula full hd, Man on Fire (2004) [Open Mate] AMZN WEB-DL 1080p Latino mega latino, Man on Fire (2004) [Open Mate] AMZN WEB-DL 1080p Latino 4k latino, Man on Fire (2004) [Open Mate] AMZN WEB-DL 1080p Latino pelicula completa, Man on Fire (2004) [Open Mate] AMZN WEB-DL 1080p Latino descargar gratis, descargar Man on Fire (2004) [Open Mate] AMZN WEB-DL 1080p Latino pelicula latino, Man on Fire (2004) [Open Mate] AMZN WEB-DL 1080p Latino 1 link mega, Man on Fire (2004) [Open Mate] AMZN WEB-DL 1080p Latino 1 link google drive, Man on Fire (2004) [Open Mate] AMZN WEB-DL 1080p Latino hd 1080p latino.
Comentarios 2
  • King Atlan - 18 mayo, 2020

    Buenísima esta peli, mil gracias por compartirla en este formato, descargada y descomprimida sin problemas, ojalá se puedan traer la del Rey Arturo (2017) en este formato Open Matte.

    • Dracarys - 19 mayo, 2020

      hola. lamentablemente no esta en este formato… solo algunas peliculas estan open matte