×

¿Problemas para descargar con Mozilla, EDGE? Deshabilita la opción "Abrir vinculos en una pestaña nueva" tal como lo muestra ésta imagen.

Lost (2010) Final de Temporada REMUX 1080p Latino – CMHDD

233 vistas

Información de Lost (2010) Final de Temporada REMUX 1080p Latino – CMHDD

Datos de la película

  • Calidad: Full 1080p
  • Audio: Español Latino AC3 2.0 BLURAY - Ingles DTS 5.1 BLURAY
  • Subtitulos: Español Latino PGS
  • Resolución: 1920x1080p
  • Formato: MKV
  • Codec: H.264
  • Encoder: Dracarys
  • Mediainfo: Clic para Mostrar Datos Ver
  • F

    Format                      : Matroska
    Format version              : Version 4
    File size                   : 7.86 GiB
    Duration                    : 43 min 6 s
    Overall bit rate mode       : Variable
    Overall bit rate            : 26.1 Mb/s
    Movie name                  : Lost (2010) [S06E01] REMUX 1080p Latino - CMHDD
    Encoded date                : UTC 2021-01-25 00:38:44
    Writing application         : mkvmerge v51.0.0 ('I Wish') 64-bit
    Writing library             : libebml v1.4.0 + libmatroska v1.6.2

    Video
    ID                          : 1
    Format                      : AVC
    Format/Info                 : Advanced Video Codec
    Format profile              : High@L4.1
    Format settings             : CABAC / 2 Ref Frames
    Format settings, CABAC      : Yes
    Format settings, Reference  : 2 frames
    Codec ID                    : V_MPEG4/ISO/AVC
    Duration                    : 43 min 6 s
    Bit rate mode               : Variable
    Bit rate                    : 21.8 Mb/s
    Width                       : 1 920 pixels
    Height                      : 1 080 pixels
    Display aspect ratio        : 16:9
    Frame rate mode             : Constant
    Frame rate                  : 23.976 (24000/1001) FPS
    Color space                 : YUV
    Chroma subsampling          : 4:2:0
    Bit depth                   : 8 bits
    Scan type                   : Progressive
    Bits/(Pixel*Frame)          : 0.439
    Stream size                 : 6.57 GiB (84%)
    Default                     : Yes
    Forced                      : No

    Audio #1
    ID                          : 2
    Format                      : AC-3
    Format/Info                 : Audio Coding 3
    Commercial name             : Dolby Digital
    Codec ID                    : A_AC3
    Duration                    : 43 min 6 s
    Bit rate mode               : Constant
    Bit rate                    : 320 kb/s
    Channel(s)                  : 2 channels
    Channel layout              : L R
    Sampling rate               : 48.0 kHz
    Frame rate                  : 31.250 FPS (1536 SPF)
    Compression mode            : Lossy
    Stream size                 : 98.7 MiB (1%)
    Language                    : Spanish
    Service kind                : Complete Main
    Default                     : Yes
    Forced                      : No

    Audio #2
    ID                          : 3
    Format                      : DTS XLL
    Format/Info                 : Digital Theater Systems
    Commercial name             : DTS-HD Master Audio
    Codec ID                    : A_DTS
    Duration                    : 43 min 6 s
    Bit rate mode               : Variable
    Bit rate                    : 3 971 kb/s
    Channel(s)                  : 6 channels
    Channel layout              : C L R Ls Rs LFE
    Sampling rate               : 48.0 kHz
    Frame rate                  : 93.750 FPS (512 SPF)
    Bit depth                   : 24 bits
    Compression mode            : Lossless
    Stream size                 : 1.20 GiB (15%)
    Language                    : English
    Default                     : No
    Forced                      : No

    Text #1
    ID                          : 4
    Format                      : PGS
    Muxing mode                 : zlib
    Codec ID                    : S_HDMV/PGS
    Codec ID/Info               : Picture based subtitle format used on BDs/HD-DVDs
    Duration                    : 38 min 43 s
    Bit rate                    : 23.7 kb/s
    Count of elements           : 766
    Stream size                 : 6.55 MiB (0%)
    Language                    : Spanish
    Default                     : No
    Forced                      : No

    Text #2
    ID                          : 5
    Format                      : PGS
    Muxing mode                 : zlib
    Codec ID                    : S_HDMV/PGS
    Codec ID/Info               : Picture based subtitle format used on BDs/HD-DVDs
    Duration                    : 5 min 30 s
    Bit rate                    : 974 b/s
    Count of elements           : 8
    Stream size                 : 39.4 KiB (0%)
    Language                    : Spanish
    Default                     : Yes
    Forced                      : No

  • Peso: 143 GiB Total

Sinopsis

La sexta temporada se ha centrado en las consecuencias de la detonación de la bomba de hidrógeno en un intento por cambiar el pasado. Una realidad alternativa, que muestra al vuelo 815 de Oceanic aterrizar en Los Ángeles, y la vida posterior de sus pasajeros.

Ficha técnica

Video trailer de la película

Enlaces de descarga

Rip de Bluray

Descargar Lost (2010) Final de Temporada REMUX 1080p Latino – CMHDD


Aportes de DPeliculasHDmega la pass es:dpeliculashdmega.org Aportes de CinemaniaHD la pass es:cinemaniahdd.com
Guardado en : Action & Adventure , Misterio

Películas relacionadas

descargar Lost (2010) Final de Temporada REMUX 1080p Latino – CMHDD Full 1080p 1080p gratis, Lost (2010) Final de Temporada REMUX 1080p Latino – CMHDD Full 1080p mega 1 link, Lost (2010) Final de Temporada REMUX 1080p Latino – CMHDD Full 1080p pelicula completa, descargar Lost (2010) Final de Temporada REMUX 1080p Latino – CMHDD Full 1080p gratis en mega.

Lost (2010) Final de Temporada REMUX 1080p Latino – CMHDD pelicula full hd, Lost (2010) Final de Temporada REMUX 1080p Latino – CMHDD mega latino, Lost (2010) Final de Temporada REMUX 1080p Latino – CMHDD 4k latino, Lost (2010) Final de Temporada REMUX 1080p Latino – CMHDD pelicula completa, Lost (2010) Final de Temporada REMUX 1080p Latino – CMHDD descargar gratis, descargar Lost (2010) Final de Temporada REMUX 1080p Latino – CMHDD pelicula latino, Lost (2010) Final de Temporada REMUX 1080p Latino – CMHDD 1 link mega, Lost (2010) Final de Temporada REMUX 1080p Latino – CMHDD 1 link google drive, Lost (2010) Final de Temporada REMUX 1080p Latino – CMHDD hd 1080p latino.
Comentarios 0