×

¿Problemas para descargar con Mozilla, EDGE? Deshabilita la opción "Abrir vinculos en una pestaña nueva" tal como lo muestra ésta imagen.

Lost (2008) Cuarta Temporada REMUX 1080p Latino – CMHDD

200 vistas

Información de Lost (2008) Cuarta Temporada REMUX 1080p Latino – CMHDD

Datos de la película

  • Calidad: Full 1080p
  • Audio: Español Latino AC3 2.0 BLURAY - Ingles DTS 5.1 BLURAY
  • Subtitulos: Español Latino PGS
  • Resolución: 1920x1080p
  • Formato: MKV
  • Codec: H.264
  • Encoder: Dracarys
  • Mediainfo: Clic para Mostrar Datos Ver
  • Format                      : Matroska
    Format version              : Version 4
    File size                   : 8.39 GiB
    Duration                    : 43 min 8 s
    Overall bit rate mode       : Variable
    Overall bit rate            : 27.8 Mb/s
    Encoded date                : UTC 2020-12-31 02:41:27
    Writing application         : mkvmerge v51.0.0 ('I Wish') 64-bit
    Writing library             : libebml v1.4.0 + libmatroska v1.6.2

    Video
    ID                          : 1
    Format                      : AVC
    Format/Info                 : Advanced Video Codec
    Format profile              : High@L4.1
    Format settings             : CABAC / 2 Ref Frames
    Format settings, CABAC      : Yes
    Format settings, Reference  : 2 frames
    Codec ID                    : V_MPEG4/ISO/AVC
    Duration                    : 43 min 8 s
    Bit rate mode               : Variable
    Bit rate                    : 22.4 Mb/s
    Width                       : 1 920 pixels
    Height                      : 1 080 pixels
    Display aspect ratio        : 16:9
    Frame rate mode             : Constant
    Frame rate                  : 23.976 (24000/1001) FPS
    Color space                 : YUV
    Chroma subsampling          : 4:2:0
    Bit depth                   : 8 bits
    Scan type                   : Progressive
    Bits/(Pixel*Frame)          : 0.450
    Stream size                 : 6.75 GiB (80%)
    Default                     : Yes
    Forced                      : No

    Audio #1
    ID                          : 2
    Format                      : AC-3
    Format/Info                 : Audio Coding 3
    Commercial name             : Dolby Digital
    Codec ID                    : A_AC3
    Duration                    : 43 min 8 s
    Bit rate mode               : Constant
    Bit rate                    : 640 kb/s
    Channel(s)                  : 6 channels
    Channel layout              : L R C LFE Ls Rs
    Sampling rate               : 48.0 kHz
    Frame rate                  : 31.250 FPS (1536 SPF)
    Compression mode            : Lossy
    Stream size                 : 197 MiB (2%)
    Language                    : English
    Service kind                : Complete Main
    Default                     : No
    Forced                      : No

    Audio #2
    ID                          : 3
    Format                      : PCM
    Format settings             : Little / Signed
    Codec ID                    : A_PCM/INT/LIT
    Duration                    : 43 min 8 s
    Bit rate mode               : Constant
    Bit rate                    : 4 608 kb/s
    Channel(s)                  : 6 channels
    Sampling rate               : 48.0 kHz
    Frame rate                  : 200.000 FPS (240 SPF)
    Bit depth                   : 16 bits
    Stream size                 : 1.39 GiB (17%)
    Language                    : English
    Default                     : No
    Forced                      : No

    Audio #3
    ID                          : 4
    Format                      : AC-3
    Format/Info                 : Audio Coding 3
    Commercial name             : Dolby Digital
    Codec ID                    : A_AC3
    Duration                    : 43 min 8 s
    Bit rate mode               : Constant
    Bit rate                    : 192 kb/s
    Channel(s)                  : 2 channels
    Channel layout              : L R
    Sampling rate               : 48.0 kHz
    Frame rate                  : 31.250 FPS (1536 SPF)
    Compression mode            : Lossy
    Stream size                 : 59.2 MiB (1%)
    Language                    : Spanish
    Service kind                : Complete Main
    Default                     : Yes
    Forced                      : No

    Text #1
    ID                          : 5
    Format                      : PGS
    Muxing mode                 : zlib
    Codec ID                    : S_HDMV/PGS
    Codec ID/Info               : Picture based subtitle format used on BDs/HD-DVDs
    Duration                    : 42 min 12 s
    Bit rate                    : 21.5 kb/s
    Count of elements           : 944
    Stream size                 : 6.49 MiB (0%)
    Language                    : Spanish
    Default                     : No
    Forced                      : No

    Text #2
    ID                          : 6
    Format                      : PGS
    Muxing mode                 : zlib
    Codec ID                    : S_HDMV/PGS
    Codec ID/Info               : Picture based subtitle format used on BDs/HD-DVDs
    Duration                    : 33 min 51 s
    Bit rate                    : 325 b/s
    Count of elements           : 12
    Stream size                 : 80.8 KiB (0%)
    Language                    : Spanish
    Default                     : Yes
    Forced                      : No

  • Peso: 117 GiB Total

Sinopsis

Después de contactar con el carguero, John Locke les dice a todos que los del carguero no quieren rescatarlos (pues Charlie antes de morir recibió transmisión de Penelope Widmore, quien afirmaba no estar en el bote carguero, a diferencia de lo que decía Naomi, la que les hablo de este que decía que se trataba de una misión de rescate liderada por ella) y como Jack dice lo contrario, se forman dos grupos, el de John en los barracones y el de Jack en la playa. Poco después de que eso ocurra, llega a la isla un helicóptero procedente del carguero, que trae consigo a Daniel FaradayMiles StraumeCharlotte Lewis y el piloto Frank Lapidus. John retiene a Miles y los del grupo de Jack se quedan con Daniel y Charlotte, todo esto mientras Frank se lleva a Sayid y Desmond al carguero. En el carguero hay un grupo de mercenarios que va en busca de Ben y por eso ataca en los barracones. Al final de la temporada, Michael, que estaba de incógnito en el carguero, y Desmond se dan cuenta de que el carguero está lleno de explosivos que detonarán si Keamy, el líder de los mercenarios, muere. Como éste va en busca de Ben, entra en una estación Dharma en la que está para atraparle, pero Ben le mata ya que éste había matado antes a su «hija» Alex. Esto hace que explote el carguero matando, entre otros, a Michael y presumiblemente a Jin. Jack, Kate, Hurley, Sayid, Sun y Aaron, consiguen salir de la isla convirtiéndose así en los Los seis de Oceanic, además salen junto a ellos Desmond, que se encuentra con Penny, y Frank, ya que pilotaba el helicóptero

Ficha técnica

Video trailer de la película

Enlaces de descarga

Rip de Bluray

Descargar Lost (2008) Cuarta Temporada REMUX 1080p Latino – CMHDD


Aportes de DPeliculasHDmega la pass es:dpeliculashdmega.org Aportes de CinemaniaHD la pass es:cinemaniahdd.com
Guardado en : Action & Adventure , Misterio

Películas relacionadas

  • El Perfumista (2022) NF WEB-DL 1080p Latino

    El Perfumista (2022) NF WEB-DL 1080p Latino

    2022
    El Perfumista (2022) NF WEB-DL 1080p Latino

    1h 36m 2022

    Descargar El Perfumista (2022) NF WEB-DL 1080p Latino. Para recuperar su sentido del olfato y el afecto...

    Director: Nils Willbrandt

    Género: Crimen

    Actores: Sólveig Arnarsdóttir

  • Cobra Kai (2022) Temporada 5 NF WEB-DL 1080p Latino

    Cobra Kai (2022) Temporada 5 NF WEB-DL 1080p Latino

    2018
    Cobra Kai (2022) Temporada 5 NF WEB-DL 1080p Latino

    0h 30m 2018

    Descargar Cobra Kai (2022) Temporada 5 NF WEB-DL 1080p Latino. Cobra Kai tiene lugar treinta y cuatro...

    Director: Josh Heald

    Género: Action & Adventure

    Actores: Xolo Mariduena

  • Cobra Kai (2021) Temporada 4 NF WEB-DL 1080p Latino

    Cobra Kai (2021) Temporada 4 NF WEB-DL 1080p Latino

    2018
    Cobra Kai (2021) Temporada 4 NF WEB-DL 1080p Latino

    0h 30m 2018

    Descargar Cobra Kai (2021) Temporada 4 NF WEB-DL 1080p Latino. Todo comenzaba a salir bien y a resolverse...

    Director: Josh Heald

    Género: Action & Adventure

    Actores: Xolo Mariduena

  • Cobra Kai (2019) Temporada 02 Full HD 1080p Latino

    Cobra Kai (2019) Temporada 02 Full HD 1080p Latino

    2018
    Cobra Kai (2019) Temporada 02 Full HD 1080p Latino

    0h 30m 2018

    Descargar Cobra Kai (2019) Temporada 02 Full HD 1080p Latino. La segunda temporada continúa con la lucha...

    Director: Josh Heald

    Género: Action & Adventure

    Actores: Xolo Mariduena

descargar Lost (2008) Cuarta Temporada REMUX 1080p Latino – CMHDD Full 1080p 1080p gratis, Lost (2008) Cuarta Temporada REMUX 1080p Latino – CMHDD Full 1080p mega 1 link, Lost (2008) Cuarta Temporada REMUX 1080p Latino – CMHDD Full 1080p pelicula completa, descargar Lost (2008) Cuarta Temporada REMUX 1080p Latino – CMHDD Full 1080p gratis en mega.

Lost (2008) Cuarta Temporada REMUX 1080p Latino – CMHDD pelicula full hd, Lost (2008) Cuarta Temporada REMUX 1080p Latino – CMHDD mega latino, Lost (2008) Cuarta Temporada REMUX 1080p Latino – CMHDD 4k latino, Lost (2008) Cuarta Temporada REMUX 1080p Latino – CMHDD pelicula completa, Lost (2008) Cuarta Temporada REMUX 1080p Latino – CMHDD descargar gratis, descargar Lost (2008) Cuarta Temporada REMUX 1080p Latino – CMHDD pelicula latino, Lost (2008) Cuarta Temporada REMUX 1080p Latino – CMHDD 1 link mega, Lost (2008) Cuarta Temporada REMUX 1080p Latino – CMHDD 1 link google drive, Lost (2008) Cuarta Temporada REMUX 1080p Latino – CMHDD hd 1080p latino.
Comentarios 0