×

¿Problemas para descargar con Mozilla, EDGE? Deshabilita la opción "Abrir vinculos en una pestaña nueva" tal como lo muestra ésta imagen.

Lost (2006-2007) Tercera Temporada REMUX 1080p Latino – CMHDD

210 vistas

Información de Lost (2006-2007) Tercera Temporada REMUX 1080p Latino – CMHDD

Datos de la película

  • Calidad: Full 1080p
  • Audio: Español Latino AC3 2.0 BLURAY - Ingles DTS 5.1 BLURAY
  • Subtitulos: Español Latino PGS
  • Resolución: 1920x1080p
  • Formato: MKV
  • Codec: H.264
  • Encoder: Dracarys
  • Mediainfo: Clic para Mostrar Datos Ver
  • Format                      : Matroska
    Format version              : Version 4
    File size                   : 6.98 GiB
    Duration                    : 43 min 18 s
    Overall bit rate mode       : Variable
    Overall bit rate            : 23.1 Mb/s
    Encoded date                : UTC 2020-12-29 01:16:52
    Writing application         : mkvmerge v51.0.0 ('I Wish') 64-bit
    Writing library             : libebml v1.4.0 + libmatroska v1.6.2

    Video
    ID                          : 1
    Format                      : AVC
    Format/Info                 : Advanced Video Codec
    Format profile              : High@L4.1
    Format settings             : CABAC / 2 Ref Frames
    Format settings, CABAC      : Yes
    Format settings, Reference  : 2 frames
    Codec ID                    : V_MPEG4/ISO/AVC
    Duration                    : 43 min 18 s
    Bit rate mode               : Variable
    Bit rate                    : 19.3 Mb/s
    Width                       : 1 920 pixels
    Height                      : 1 080 pixels
    Display aspect ratio        : 16:9
    Frame rate mode             : Constant
    Frame rate                  : 23.976 (24000/1001) FPS
    Color space                 : YUV
    Chroma subsampling          : 4:2:0
    Bit depth                   : 8 bits
    Scan type                   : Progressive
    Bits/(Pixel*Frame)          : 0.388
    Stream size                 : 5.83 GiB (83%)
    Default                     : Yes
    Forced                      : No

    Audio #1
    ID                          : 2
    Format                      : DTS XLL
    Format/Info                 : Digital Theater Systems
    Commercial name             : DTS-HD Master Audio
    Codec ID                    : A_DTS
    Duration                    : 43 min 18 s
    Bit rate mode               : Variable
    Bit rate                    : 3 481 kb/s
    Channel(s)                  : 6 channels
    Channel layout              : C L R Ls Rs LFE
    Sampling rate               : 48.0 kHz
    Frame rate                  : 93.750 FPS (512 SPF)
    Bit depth                   : 24 bits
    Compression mode            : Lossless
    Stream size                 : 1.05 GiB (15%)
    Language                    : English
    Default                     : Yes
    Forced                      : No

    Audio #2
    ID                          : 3
    Format                      : AC-3
    Format/Info                 : Audio Coding 3
    Commercial name             : Dolby Digital
    Codec ID                    : A_AC3
    Duration                    : 43 min 18 s
    Bit rate mode               : Constant
    Bit rate                    : 320 kb/s
    Channel(s)                  : 2 channels
    Channel layout              : L R
    Sampling rate               : 48.0 kHz
    Frame rate                  : 31.250 FPS (1536 SPF)
    Compression mode            : Lossy
    Stream size                 : 99.1 MiB (1%)
    Language                    : Spanish
    Service kind                : Complete Main
    Default                     : No
    Forced                      : No

    Text #1
    ID                          : 4
    Format                      : PGS
    Muxing mode                 : zlib
    Codec ID                    : S_HDMV/PGS
    Codec ID/Info               : Picture based subtitle format used on BDs/HD-DVDs
    Duration                    : 42 min 18 s
    Bit rate                    : 19.4 kb/s
    Count of elements           : 654
    Stream size                 : 5.88 MiB (0%)
    Language                    : Spanish
    Default                     : Yes
    Forced                      : No

    Text #2
    ID                          : 5
    Format                      : PGS
    Muxing mode                 : zlib
    Codec ID                    : S_HDMV/PGS
    Codec ID/Info               : Picture based subtitle format used on BDs/HD-DVDs
    Duration                    : 42 ms
    Bit rate                    : 13.3 kb/s
    Count of elements           : 2
    Stream size                 : 70.0 Bytes (0%)
    Language                    : Spanish
    Default                     : No
    Forced                      : No

  • Peso: 159 GiB Total

Sinopsis

tercera temporada de la serie. Un ojo azul se abre, una mano selecciona un cd y lo pone en un reproductor de cd (siempre he pensado que ese disco estaba al revés) y vemos por primera vez a la que después de presentará como Juliet mirarse al espejo recién levantada cambiando de expresión varias veces intentando poner buena cara, intentando alegrarse pero le cuesta. Aún así baila mientras coloca las sillas y es que es la anfitriona de un club de lectura en el que tendrá que aguantar cómo un tio de nombre Adam dice que el libro escogido “no lo leería ni Ben”. Pero ella se enfada y le empieza a decir que pensaba que el libre albedrío seguía existiendo… cuando todo se pone a temblar.

Ficha técnica

Video trailer de la película

Enlaces de descarga

Rip de Bluray

Descargar Lost (2006-2007) Tercera Temporada REMUX 1080p Latino – CMHDD


Aportes de DPeliculasHDmega la pass es:dpeliculashdmega.org Aportes de CinemaniaHD la pass es:cinemaniahdd.com
Guardado en : Action & Adventure , Misterio

Películas relacionadas

descargar Lost (2006-2007) Tercera Temporada REMUX 1080p Latino – CMHDD Full 1080p 1080p gratis, Lost (2006-2007) Tercera Temporada REMUX 1080p Latino – CMHDD Full 1080p mega 1 link, Lost (2006-2007) Tercera Temporada REMUX 1080p Latino – CMHDD Full 1080p pelicula completa, descargar Lost (2006-2007) Tercera Temporada REMUX 1080p Latino – CMHDD Full 1080p gratis en mega.

Lost (2006-2007) Tercera Temporada REMUX 1080p Latino – CMHDD pelicula full hd, Lost (2006-2007) Tercera Temporada REMUX 1080p Latino – CMHDD mega latino, Lost (2006-2007) Tercera Temporada REMUX 1080p Latino – CMHDD 4k latino, Lost (2006-2007) Tercera Temporada REMUX 1080p Latino – CMHDD pelicula completa, Lost (2006-2007) Tercera Temporada REMUX 1080p Latino – CMHDD descargar gratis, descargar Lost (2006-2007) Tercera Temporada REMUX 1080p Latino – CMHDD pelicula latino, Lost (2006-2007) Tercera Temporada REMUX 1080p Latino – CMHDD 1 link mega, Lost (2006-2007) Tercera Temporada REMUX 1080p Latino – CMHDD 1 link google drive, Lost (2006-2007) Tercera Temporada REMUX 1080p Latino – CMHDD hd 1080p latino.
Comentarios 0