×

¿Problemas para descargar con Mozilla, EDGE? Deshabilita la opción "Abrir vinculos en una pestaña nueva" tal como lo muestra ésta imagen.

Lost (2005-2006) Segunda Temporada REMUX 1080p Latino – CMHDD

269 vistas

Información de Lost (2005-2006) Segunda Temporada REMUX 1080p Latino – CMHDD

Datos de la película

  • Calidad: Full 1080p
  • Audio: Español Latino AC3 2.0 BLURAY - Ingles DTS 5.1 BLURAY
  • Subtitulos: Español Latino PGS
  • Resolución: 1920x1080p
  • Formato: MKV
  • Codec: H.264
  • Encoder: Dracarys
  • Mediainfo: Clic para Mostrar Datos Ver
  • Format                      : Matroska
    Format version              : Version 4
    File size                   : 7.63 GiB
    Duration                    : 43 min 17 s
    Overall bit rate mode       : Variable
    Overall bit rate            : 25.2 Mb/s
    Movie name                  : Lost (2006-2006) [S02E01] REMUX 1080p Latino - CMHDD
    Encoded date                : UTC 2020-12-18 02:07:27
    Writing application         : mkvmerge v51.0.0 ('I Wish') 64-bit
    Writing library             : libebml v1.4.0 + libmatroska v1.6.2

    Video
    ID                          : 1
    Format                      : AVC
    Format/Info                 : Advanced Video Codec
    Format profile              : High@L4.1
    Format settings             : CABAC / 2 Ref Frames
    Format settings, CABAC      : Yes
    Format settings, Reference  : 2 frames
    Codec ID                    : V_MPEG4/ISO/AVC
    Duration                    : 43 min 17 s
    Bit rate mode               : Variable
    Bit rate                    : 22.0 Mb/s
    Width                       : 1 920 pixels
    Height                      : 1 080 pixels
    Display aspect ratio        : 16:9
    Frame rate mode             : Constant
    Frame rate                  : 23.976 (24000/1001) FPS
    Color space                 : YUV
    Chroma subsampling          : 4:2:0
    Bit depth                   : 8 bits
    Scan type                   : Progressive
    Bits/(Pixel*Frame)          : 0.442
    Stream size                 : 6.64 GiB (87%)
    Default                     : Yes
    Forced                      : No

    Audio #1
    ID                          : 2
    Format                      : DTS XLL
    Format/Info                 : Digital Theater Systems
    Commercial name             : DTS-HD Master Audio
    Codec ID                    : A_DTS
    Duration                    : 43 min 17 s
    Bit rate mode               : Variable
    Bit rate                    : 2 931 kb/s
    Channel(s)                  : 6 channels
    Channel layout              : C L R Ls Rs LFE
    Sampling rate               : 48.0 kHz
    Frame rate                  : 93.750 FPS (512 SPF)
    Bit depth                   : 24 bits
    Compression mode            : Lossless
    Stream size                 : 908 MiB (12%)
    Language                    : English
    Default                     : No
    Forced                      : No

    Audio #2
    ID                          : 3
    Format                      : AC-3
    Format/Info                 : Audio Coding 3
    Commercial name             : Dolby Digital
    Codec ID                    : A_AC3
    Duration                    : 43 min 17 s
    Bit rate mode               : Constant
    Bit rate                    : 320 kb/s
    Channel(s)                  : 2 channels
    Channel layout              : L R
    Sampling rate               : 48.0 kHz
    Frame rate                  : 31.250 FPS (1536 SPF)
    Compression mode            : Lossy
    Stream size                 : 99.1 MiB (1%)
    Language                    : Spanish
    Service kind                : Complete Main
    Default                     : Yes
    Forced                      : No

    Text #1
    ID                          : 4
    Format                      : PGS
    Muxing mode                 : zlib
    Codec ID                    : S_HDMV/PGS
    Codec ID/Info               : Picture based subtitle format used on BDs/HD-DVDs
    Duration                    : 42 min 26 s
    Bit rate                    : 25.8 kb/s
    Count of elements           : 776
    Stream size                 : 7.82 MiB (0%)
    Language                    : Spanish
    Default                     : No
    Forced                      : No

    Text #2
    ID                          : 5
    Format                      : PGS
    Muxing mode                 : zlib
    Codec ID                    : S_HDMV/PGS
    Codec ID/Info               : Picture based subtitle format used on BDs/HD-DVDs
    Duration                    : 1 s 418 ms
    Bit rate                    : 104 kb/s
    Count of elements           : 2
    Stream size                 : 18.1 KiB (0%)
    Language                    : Spanish
    Default                     : Yes
    Forced                      : No

  • Peso: 190 GiB Total

Sinopsis

Michael y Sawyer (quien está lesionado) tratan de sobrevivir al peligro del océano, mientras no pueden encontrar a Jin y Walt en ningún lado. El misterio de la escotilla se resuelve. Jack y Locke descubren el propósito de la escotilla. Michael, Sawyer, y Jin son capturados por personas que creen que son «Los Otros»

Ficha técnica

Video trailer de la película

Enlaces de descarga

Rip de Bluray

Descargar Lost (2005-2006) Segunda Temporada REMUX 1080p Latino – CMHDD


Aportes de DPeliculasHDmega la pass es:dpeliculashdmega.org Aportes de CinemaniaHD la pass es:cinemaniahdd.com
Guardado en : Action & Adventure , Misterio

Películas relacionadas

  • Si no despierto (2017) BD-USA REMUX 1080p Latino

    Si no despierto (2017) BD-USA REMUX 1080p Latino

    2017
    Si no despierto (2017) BD-USA REMUX 1080p Latino

    1h 39m 2017

    Descargar Si no despierto (2017) BD-USA REMUX 1080p Latino. En principio el 12 de febrero es sólo otro...

    Director: Ry Russo-Young

    Género: Drama

    Actores: Zoey Deutch

  • Si no despierto (2017) BD-EUR REMUX 1080p Latino

    Si no despierto (2017) BD-EUR REMUX 1080p Latino

    2017
    Si no despierto (2017) BD-EUR REMUX 1080p Latino

    1h 39m 2017

    Descargar Si no despierto (2017) BD-EUR REMUX 1080p Latino. En principio el 12 de febrero es sólo otro...

    Director: Ry Russo-Young

    Género: Drama

    Actores: Zoey Deutch

  • El Ritual (2017) REMUX 1080p Latino

    El Ritual (2017) REMUX 1080p Latino

    2017
    El Ritual (2017) REMUX 1080p Latino

    1h 34m 2017

    Descargar El Ritual (2017) REMUX 1080p Latino. Un grupo de amigos de la universidad se reúnen para emprender...

    Director: Valeriu Chiran

    Género: Misterio

    Actores: Zane Jarcu

descargar Lost (2005-2006) Segunda Temporada REMUX 1080p Latino – CMHDD Full 1080p 1080p gratis, Lost (2005-2006) Segunda Temporada REMUX 1080p Latino – CMHDD Full 1080p mega 1 link, Lost (2005-2006) Segunda Temporada REMUX 1080p Latino – CMHDD Full 1080p pelicula completa, descargar Lost (2005-2006) Segunda Temporada REMUX 1080p Latino – CMHDD Full 1080p gratis en mega.

Lost (2005-2006) Segunda Temporada REMUX 1080p Latino – CMHDD pelicula full hd, Lost (2005-2006) Segunda Temporada REMUX 1080p Latino – CMHDD mega latino, Lost (2005-2006) Segunda Temporada REMUX 1080p Latino – CMHDD 4k latino, Lost (2005-2006) Segunda Temporada REMUX 1080p Latino – CMHDD pelicula completa, Lost (2005-2006) Segunda Temporada REMUX 1080p Latino – CMHDD descargar gratis, descargar Lost (2005-2006) Segunda Temporada REMUX 1080p Latino – CMHDD pelicula latino, Lost (2005-2006) Segunda Temporada REMUX 1080p Latino – CMHDD 1 link mega, Lost (2005-2006) Segunda Temporada REMUX 1080p Latino – CMHDD 1 link google drive, Lost (2005-2006) Segunda Temporada REMUX 1080p Latino – CMHDD hd 1080p latino.
Comentarios 0