×

¿Problemas para descargar con Mozilla, EDGE? Deshabilita la opción "Abrir vinculos en una pestaña nueva" tal como lo muestra ésta imagen.

Lost (2004-2005) Primera Temporada REMUX 1080p Latino – CMHDD

334 vistas

Información de Lost (2004-2005) Primera Temporada REMUX 1080p Latino – CMHDD

Datos de la película

  • Calidad: Full 1080p
  • Audio: Español Latino AC3 2.0 BLURAY - Ingles DTS 5.1 BLURAY
  • Subtitulos: Español Latino PGS
  • Resolución: 1920x108op
  • Formato: MKV
  • Codec: H.264
  • Encoder: Dracarys
  • Mediainfo: Clic para Mostrar Datos Ver
  • Format                      : Matroska
    Format version              : Version 4
    File size                   : 7.34 GiB
    Duration                    : 42 min 20 s
    Overall bit rate mode       : Variable
    Overall bit rate            : 24.8 Mb/s
    Movie name                  : Lost (2004-2005) [S01E01] REMUX 1080p Latino - CMHDD
    Encoded date                : UTC 2020-10-09 22:47:37
    Writing application         : mkvmerge v51.0.0 ('I Wish') 64-bit
    Writing library             : libebml v1.4.0 + libmatroska v1.6.2

    Video
    ID                          : 1
    Format                      : AVC
    Format/Info                 : Advanced Video Codec
    Format profile              : High@L4.1
    Format settings             : CABAC / 2 Ref Frames
    Format settings, CABAC      : Yes
    Format settings, Reference  : 2 frames
    Format settings, GOP        : M=1, N=10
    Codec ID                    : V_MPEG4/ISO/AVC
    Duration                    : 42 min 20 s
    Bit rate mode               : Variable
    Bit rate                    : 21.9 Mb/s
    Width                       : 1 920 pixels
    Height                      : 1 080 pixels
    Display aspect ratio        : 16:9
    Frame rate mode             : Constant
    Frame rate                  : 23.976 (24000/1001) FPS
    Color space                 : YUV
    Chroma subsampling          : 4:2:0
    Bit depth                   : 8 bits
    Scan type                   : Progressive
    Bits/(Pixel*Frame)          : 0.441
    Stream size                 : 6.49 GiB (88%)
    Default                     : Yes
    Forced                      : No

    Audio #1
    ID                          : 2
    Format                      : AC-3
    Format/Info                 : Audio Coding 3
    Commercial name             : Dolby Digital
    Codec ID                    : A_AC3
    Duration                    : 42 min 20 s
    Bit rate mode               : Constant
    Bit rate                    : 320 kb/s
    Channel(s)                  : 2 channels
    Channel layout              : L R
    Sampling rate               : 48.0 kHz
    Frame rate                  : 31.250 FPS (1536 SPF)
    Compression mode            : Lossy
    Stream size                 : 96.9 MiB (1%)
    Language                    : Spanish
    Service kind                : Complete Main
    Default                     : Yes
    Forced                      : No

    Audio #2
    ID                          : 3
    Format                      : DTS XLL
    Format/Info                 : Digital Theater Systems
    Commercial name             : DTS-HD Master Audio
    Codec ID                    : A_DTS
    Duration                    : 42 min 20 s
    Bit rate mode               : Variable
    Bit rate                    : 2 532 kb/s
    Channel(s)                  : 6 channels
    Channel layout              : C L R Ls Rs LFE
    Sampling rate               : 48.0 kHz
    Frame rate                  : 93.750 FPS (512 SPF)
    Bit depth                   : 24 bits
    Compression mode            : Lossless
    Stream size                 : 767 MiB (10%)
    Language                    : English
    Default                     : No
    Forced                      : No

    Text #1
    ID                          : 4
    Format                      : PGS
    Muxing mode                 : zlib
    Codec ID                    : S_HDMV/PGS
    Codec ID/Info               : Picture based subtitle format used on BDs/HD-DVDs
    Duration                    : 38 min 37 s
    Bit rate                    : 18.1 kb/s
    Count of elements           : 580
    Stream size                 : 4.99 MiB (0%)
    Language                    : Spanish
    Default                     : No
    Forced                      : No

    Text #2
    ID                          : 5
    Format                      : PGS
    Muxing mode                 : zlib
    Codec ID                    : S_HDMV/PGS
    Codec ID/Info               : Picture based subtitle format used on BDs/HD-DVDs
    Duration                    : 15 s 766 ms
    Bit rate                    : 42.4 kb/s
    Count of elements           : 8
    Stream size                 : 81.6 KiB (0%)
    Language                    : Spanish
    Default                     : Yes
    Forced                      : No

  • Peso: 191 GiB Total

Sinopsis

El 22 de septiembre de 2004 un avión se estrella en una remota isla del Pacífico. … Es él mismo quien, en compañía de Kate y Charlie, se adentra en la selva en busca de la cabina del piloto, ya que el avión se partió en el aire y los restos han quedado dispersados por la isla.

Ficha técnica

Video trailer de la película

Enlaces de descarga

Rip de Bluray

Descargar Lost (2004-2005) Primera Temporada REMUX 1080p Latino – CMHDD


Aportes de DPeliculasHDmega la pass es:dpeliculashdmega.org Aportes de CinemaniaHD la pass es:cinemaniahdd.com
Guardado en : Action & Adventure , Misterio

Películas relacionadas

descargar Lost (2004-2005) Primera Temporada REMUX 1080p Latino – CMHDD Full 1080p 1080p gratis, Lost (2004-2005) Primera Temporada REMUX 1080p Latino – CMHDD Full 1080p mega 1 link, Lost (2004-2005) Primera Temporada REMUX 1080p Latino – CMHDD Full 1080p pelicula completa, descargar Lost (2004-2005) Primera Temporada REMUX 1080p Latino – CMHDD Full 1080p gratis en mega.

Lost (2004-2005) Primera Temporada REMUX 1080p Latino – CMHDD pelicula full hd, Lost (2004-2005) Primera Temporada REMUX 1080p Latino – CMHDD mega latino, Lost (2004-2005) Primera Temporada REMUX 1080p Latino – CMHDD 4k latino, Lost (2004-2005) Primera Temporada REMUX 1080p Latino – CMHDD pelicula completa, Lost (2004-2005) Primera Temporada REMUX 1080p Latino – CMHDD descargar gratis, descargar Lost (2004-2005) Primera Temporada REMUX 1080p Latino – CMHDD pelicula latino, Lost (2004-2005) Primera Temporada REMUX 1080p Latino – CMHDD 1 link mega, Lost (2004-2005) Primera Temporada REMUX 1080p Latino – CMHDD 1 link google drive, Lost (2004-2005) Primera Temporada REMUX 1080p Latino – CMHDD hd 1080p latino.
Comentarios 0