Los siete magníficos (2016) Full 1080p Latino

2.024 vistas
1 estrella2 estrellas3 estrellas4 estrellas5 estrellas (1 votos, promedio: 5,00 de 5)
Cargando…

Información de Los siete magníficos (2016) Full 1080p Latino

Datos de la película

  • Calidad: Full 1080p
  • Audio: Español Latino AC3 5.1 BLURAY - Ingles DTS 5.1 BLURAY
  • Subtitulos: Español Latino PGS - Ingles PGS
  • Resolución: 1920x1080p
  • Formato: MKV
  • Codec: H.264
  • Encoder: Dpelis
  • Mediainfo: Clic para Mostrar Datos Ver
  • he Magnificent Seven (2016) Full 1080p Latino.mkv
    Format                      : Matroska
    Format version              : Version 4 / Version 2
    File size                   : 8.10 GiB
    Duration                    : 2 h 12 min
    Overall bit rate            : 8 731 kb/s
    Movie name                  : DPeliculasHDMega.ORG
    Encoded date                : UTC 2017-10-09 23:45:07 / UTC 2017-10-09T11:55:24Z
    Writing application         : mkvmerge v10.0.0 ('To Drown In You') 64bit
    Writing library             : libebml v1.3.4 + libmatroska v1.4.5 / Lavf57.7.2

    Video
    ID                          : 1
    Format                      : AVC
    Format/Info                 : Advanced Video Codec
    Format profile              : [email protected]
    Format settings, CABAC      : Yes
    Format settings, RefFrames  : 4 frames
    Codec ID                    : V_MPEG4/ISO/AVC
    Duration                    : 2 h 12 min
    Bit rate                    : 6 664 kb/s
    Width                       : 1 920 pixels
    Height                      : 1 080 pixels
    Display aspect ratio        : 16:9
    Frame rate mode             : Constant
    Frame rate                  : 23.976 (24000/1001) FPS
    Color space                 : YUV
    Chroma subsampling          : 4:2:0
    Bit depth                   : 8 bits
    Scan type                   : Progressive
    Bits/(Pixel*Frame)          : 0.134
    Stream size                 : 6.18 GiB (76%)
    Writing library             : x264 core 148 r2708 86b7198
    Encoding settings           : cabac=1 / ref=4 / deblock=1:0:0 / analyse=0x3:0x133 / me=esa / subme=10 / psy=1 / psy_rd=1.00:0.00 / mixed_ref=1 / me_range=24 / chroma_me=1 / trellis=2 / 8x8dct=1 / cqm=0 / deadzone=21,11 / fast_pskip=1 / chroma_qp_offset=-2 / threads=34 / lookahead_threads=5 / sliced_threads=0 / nr=0 / decimate=1 / interlaced=0 / bluray_compat=0 / constrained_intra=0 / bframes=8 / b_pyramid=2 / b_adapt=2 / b_bias=0 / direct=3 / weightb=1 / open_gop=0 / weightp=2 / keyint=240 / keyint_min=24 / scenecut=40 / intra_refresh=0 / rc_lookahead=60 / rc=crf / mbtree=1 / crf=20.0 / qcomp=0.60 / qpmin=0 / qpmax=69 / qpstep=4 / vbv_maxrate=62500 / vbv_bufsize=78125 / crf_max=0.0 / nal_hrd=none / filler=0 / ip_ratio=1.40 / aq=1:1.00
    Default                     : Yes
    Forced                      : No
    Color range                 : Limited
    Color primaries             : BT.709
    Transfer characteristics    : BT.709
    Matrix coefficients         : BT.709
    Statistics Tags Issue       : mkvmerge v10.0.0 ('To Drown In You') 64bit 2017-10-09 23:45:07 / mkvmerge v10.0.0 ('To Drown In You') 64bit 2017-10-09 23:45:07 / UTC 2017-10-09T11:55:24Z
    FromStats_BitRate           : 6818595
    FromStats_Duration          : 02:12:49.921000000
    FromStats_FrameCount        : 191087
    FromStats_StreamSize        : 6792958291

    Audio #1
    ID                          : 2
    Format                      : AC-3
    Format/Info                 : Audio Coding 3
    Format settings, Endianness : Big
    Codec ID                    : A_AC3
    Duration                    : 2 h 12 min
    Bit rate mode               : Constant
    Bit rate                    : 384 kb/s
    Channel(s)                  : 6 channels
    Channel positions           : Front: L C R, Side: L R, LFE
    Sampling rate               : 48.0 kHz
    Frame rate                  : 31.250 FPS (1536 SPF)
    Bit depth                   : 16 bits
    Compression mode            : Lossy
    Stream size                 : 365 MiB (4%)
    Language                    : Spanish
    Service kind                : Complete Main
    Default                     : Yes
    Forced                      : No
    Statistics Tags Issue       : mkvmerge v10.0.0 ('To Drown In You') 64bit 2017-10-09 23:45:07 / mkvmerge v10.0.0 ('To Drown In You') 64bit 2017-10-09 23:45:07 / UTC 2017-10-09T11:55:24Z
    FromStats_BitRate           : 384000
    FromStats_Duration          : 02:12:50.240000000
    FromStats_FrameCount        : 249070
    FromStats_StreamSize        : 382571520

    Audio #2
    ID                          : 3
    Format                      : DTS
    Format/Info                 : Digital Theater Systems
    Mode                        : 16
    Format settings, Endianness : Big
    Codec ID                    : A_DTS
    Duration                    : 2 h 12 min
    Bit rate mode               : Constant
    Bit rate                    : 1 509 kb/s
    Channel(s)                  : 6 channels
    Channel positions           : Front: L C R, Side: L R, LFE
    Sampling rate               : 48.0 kHz
    Frame rate                  : 93.750 FPS (512 SPF)
    Bit depth                   : 16 bits
    Compression mode            : Lossy
    Stream size                 : 1.40 GiB (17%)
    Title                       : Surround
    Language                    : English
    Default                     : No
    Forced                      : No
    Statistics Tags Issue       : mkvmerge v10.0.0 ('To Drown In You') 64bit 2017-10-09 23:45:07 / mkvmerge v10.0.0 ('To Drown In You') 64bit 2017-10-09 23:45:07 / UTC 2017-10-09T11:55:24Z
    FromStats_BitRate           : 1509000
    FromStats_Duration          : 02:12:50.016000000
    FromStats_FrameCount        : 747189
    FromStats_StreamSize        : 1503344268

    Text #1
    ID                          : 4
    Format                      : PGS
    Muxing mode                 : zlib
    Codec ID                    : S_HDMV/PGS
    Codec ID/Info               : Picture based subtitle format used on BDs/HD-DVDs
    Language                    : Spanish
    Default                     : No
    Forced                      : No
    Statistics Tags Issue       : mkvmerge v10.0.0 ('To Drown In You') 64bit 2017-10-09 23:45:07 / mkvmerge v10.0.0 ('To Drown In You') 64bit 2017-10-09 23:45:07 / UTC 2017-10-09T11:55:24Z
    FromStats_BitRate           : 7690
    FromStats_Duration          : 02:12:32.098000000
    FromStats_FrameCount        : 2716
    FromStats_StreamSize        : 7644238

    Text #2
    ID                          : 5
    Format                      : PGS
    Muxing mode                 : zlib
    Codec ID                    : S_HDMV/PGS
    Codec ID/Info               : Picture based subtitle format used on BDs/HD-DVDs
    Language                    : English
    Default                     : No
    Forced                      : No
    Statistics Tags Issue       : mkvmerge v10.0.0 ('To Drown In You') 64bit 2017-10-09 23:45:07 / mkvmerge v10.0.0 ('To Drown In You') 64bit 2017-10-09 23:45:07 / UTC 2017-10-09T11:55:24Z
    FromStats_BitRate           : 9149
    FromStats_Duration          : 02:06:57.804000000
    FromStats_FrameCount        : 2947
    FromStats_StreamSize        : 8712393

    Text #3
    ID                          : 6
    Format                      : UTF-8
    Codec ID                    : S_TEXT/UTF8
    Codec ID/Info               : UTF-8 Plain Text
    Language                    : Spanish
    Default                     : No
    Forced                      : No
    Statistics Tags Issue       : mkvmerge v10.0.0 ('To Drown In You') 64bit 2017-10-09 23:45:07 / mkvmerge v10.0.0 ('To Drown In You') 64bit 2017-10-09 23:45:07 / UTC 2017-10-09T11:55:24Z
    FromStats_BitRate           : 41
    FromStats_Duration          : 02:06:48.273000000
    FromStats_FrameCount        : 1356
    FromStats_StreamSize        : 39440

    Text #4
    ID                          : 7
    Format                      : UTF-8
    Codec ID                    : S_TEXT/UTF8
    Codec ID/Info               : UTF-8 Plain Text
    Title                       : FORZADOS
    Language                    : Spanish
    Default                     : Yes
    Forced                      : No
    Statistics Tags Issue       : mkvmerge v10.0.0 ('To Drown In You') 64bit 2017-10-09 23:45:07 / mkvmerge v10.0.0 ('To Drown In You') 64bit 2017-10-09 23:45:07 / UTC 2017-10-09T11:55:24Z
    FromStats_BitRate           : 0
    FromStats_Duration          : 02:06:23.225000000
    FromStats_FrameCount        : 25
    FromStats_StreamSize        : 637

    Menu
    00:00:00.000                : :Chapter 1
    00:04:53.710                : :Chapter 2
    00:11:27.562                : :Chapter 3
    00:18:12.592                : :Chapter 4
    00:25:17.850                : :Chapter 5
    00:31:55.997                : :Chapter 6
    00:36:53.837                : :Chapter 7
    00:42:05.523                : :Chapter 8
    00:50:22.978                : :Chapter 9
    00:59:57.844                : :Chapter 10
    01:06:49.631                : :Chapter 11
    01:16:08.355                : :Chapter 12
    01:23:25.834                : :Chapter 13
    01:34:06.182                : :Chapter 14
    01:44:19.754                : :Chapter 15
    01:54:47.339                : :Chapter 16

  • Peso: 8.10 GB

Sinopsis

Siete forajidos son contratados por los desesperados habitantes del pueblo de Rose Creek para que les defiendan de la amenaza de un despiadado extorsionador llamado Bartholomew Bogue. Mientras preparan el pueblo para la violenta confrontación que saben se avecina inevitablemente, estos siete mercenarios se encontrarán luchando por algo más que el simple dinero.

Ficha técnica

Video trailer de la película

Enlaces de descarga

Rip de Bluray

Descargar Los siete magníficos (2016) Full 1080p Latino




Aportes de DPeliculasHDmega la pass es:dpeliculashdmega.org Aportes de CinemaniaHD la pass es:cinemaniahdd.com

Películas relacionadas

  • The Final Wish (2018) Full 1080p Subtitulado

    2019
    The Final Wish (2018) Full 1080p Subtitulado

    0.0 1h 35m 2019

    Descargar The Final Wish (2018) Full 1080p Subtitulado. Aaron (Michael Welch) es un abogado con problemas...

    Director: Timothy Woodward Jr.

    Género: FULL 1080p Plateadas

    Actores: Tony Todd

  • La nave del terror (1997) Full 1080p Latino

    1997
    La nave del terror (1997) Full 1080p Latino

    5.0 1h 36m 1997

    En el año 2047 una nave de rescate, la "Lewis & Clark", es enviada a investigar la misteriosa reaparición...

    Director: Paul W.S. Anderson

    Género: Ciencia ficción

    Actores: Teresa May

  • Man On A Ledge (2012) Full (Open Matte) 1080P Latino

    2012
    Man On A Ledge (2012) Full (Open Matte) 1080P Latino

    5.0 1h 42m 2012

    Nick Cassidy (Sam Worthington), un antiguo agente de policía, se escapa de la cárcel y se dirige al...

    Director: Melissa Kalbfus

    Género: Acción

    Actores: William Sadler

Comentarios 3
  • henry - 13 octubre, 2017

    porque no subes en 1fichier admi te loa gradeciriamos un monton

    • dpelis - 13 octubre, 2017

      tratemos de agregar. este mes.

  • Brayan - 13 octubre, 2017

    Descargada, muchas gracias por todo!! saludos 😀