×

¿Problemas para descargar con Mozilla, EDGE? Deshabilita la opción "Abrir vinculos en una pestaña nueva" tal como lo muestra ésta imagen.

Los campeones (2023) MA WEB-DL 1080p Latino

216 vistas

Información de Los campeones (2023) MA WEB-DL 1080p Latino

Datos de la película

  • Calidad: WEBDL
  • Audio: Español Latino AC3 5.1 WEB-DL - Ingles AC3 5.1 WEB-DL
  • Subtitulos: Español Latino SRT- FORZADOS SRT
  • Resolución: 1920x1080p
  • Formato: MKV
  • Codec: H.264
  • Encoder: Melkor
  • Mediainfo: Clic para Mostrar Datos Ver
  • Los Campeones (2023) MA WebDL 1080p Latino.mkv
    Format                      : Matroska
    Format version              : Version 4
    File size                   : 7.88 GiB
    Duration                    : 2 h 4 min
    Overall bit rate            : 9 082 kb/s
    Movie name                  : Champions (2023) CinemaniaHDD.Net
    Encoded date                : UTC 2023-03-29 04:39:10
    Writing application         : mkvmerge v56.1.0 ('My Friend') 64-bit
    Writing library             : libebml v1.4.2 + libmatroska v1.6.4
    Site                        : CinemaniaHDD.Net
    Uploader                    : Melkor

    Video
    ID                          : 1
    Format                      : AVC
    Format/Info                 : Advanced Video Codec
    Format profile              : High@L4
    Format settings             : CABAC / 4 Ref Frames
    Format settings, CABAC      : Yes
    Format settings, Reference  : 4 frames
    Codec ID                    : V_MPEG4/ISO/AVC
    Duration                    : 2 h 4 min
    Bit rate                    : 8 000 kb/s
    Width                       : 1 920 pixels
    Height                      : 1 080 pixels
    Display aspect ratio        : 16:9
    Frame rate mode             : Constant
    Frame rate                  : 23.976 (24000/1001) FPS
    Color space                 : YUV
    Chroma subsampling          : 4:2:0
    Bit depth                   : 8 bits
    Scan type                   : Progressive
    Bits/(Pixel*Frame)          : 0.161
    Stream size                 : 6.88 GiB (87%)
    Title                       : Web HD1080p [CinemaniaHDD]
    Writing library             : x264 core 164 r3094 bfc87b7
    Encoding settings           : cabac=1 / ref=4 / deblock=1:-1:-1 / analyse=0x3:0x133 / me=umh / subme=9 / psy=1 / psy_rd=1.00:0.15 / mixed_ref=1 / me_range=16 / chroma_me=1 / trellis=2 / 8x8dct=1 / cqm=0 / deadzone=21,11 / fast_pskip=1 / chroma_qp_offset=-3 / threads=12 / lookahead_threads=1 / sliced_threads=0 / nr=0 / decimate=1 / interlaced=0 / bluray_compat=0 / stitchable=1 / constrained_intra=0 / bframes=3 / b_pyramid=2 / b_adapt=2 / b_bias=0 / direct=3 / weightb=1 / open_gop=0 / weightp=2 / keyint=48 / keyint_min=4 / scenecut=0 / intra_refresh=0 / rc_lookahead=48 / rc=abr / mbtree=1 / bitrate=8000 / ratetol=1.0 / qcomp=0.60 / qpmin=0 / qpmax=69 / qpstep=4 / vbv_maxrate=8800 / vbv_bufsize=16000 / nal_hrd=none / filler=0 / ip_ratio=1.40 / aq=1:1.00
    Language                    : English
    Default                     : Yes
    Forced                      : Yes
    Color range                 : Limited
    Color primaries             : BT.709
    Transfer characteristics    : BT.709
    Matrix coefficients         : BT.709

    Audio #1
    ID                          : 2
    Format                      : AC-3
    Format/Info                 : Audio Coding 3
    Commercial name             : Dolby Digital
    Codec ID                    : A_AC3
    Duration                    : 2 h 4 min
    Bit rate mode               : Constant
    Bit rate                    : 384 kb/s
    Channel(s)                  : 6 channels
    Channel layout              : L R C LFE Ls Rs
    Sampling rate               : 48.0 kHz
    Frame rate                  : 31.250 FPS (1536 SPF)
    Compression mode            : Lossy
    Stream size                 : 341 MiB (4%)
    Title                       : Español Latino [CinemaniaHDD]
    Language                    : Spanish
    Service kind                : Complete Main
    Default                     : Yes
    Forced                      : Yes

    Audio #2
    ID                          : 3
    Format                      : E-AC-3 JOC
    Format/Info                 : Enhanced AC-3 with Joint Object Coding
    Commercial name             : Dolby Digital Plus with Dolby Atmos
    Codec ID                    : A_EAC3
    Duration                    : 2 h 4 min
    Bit rate mode               : Constant
    Bit rate                    : 768 kb/s
    Channel(s)                  : 6 channels
    Channel layout              : L R C LFE Ls Rs
    Sampling rate               : 48.0 kHz
    Frame rate                  : 31.250 FPS (1536 SPF)
    Compression mode            : Lossy
    Delay relative to video     : 83 ms
    Stream size                 : 683 MiB (8%)
    Title                       : Ingles [CinemaniaHDD]
    Language                    : English
    Service kind                : Complete Main
    Default                     : No
    Forced                      : No
    Complexity index            : 16
    Number of dynamic objects   : 15
    Bed channel count           : 1 channel
    Bed channel configuration   : LFE

    Text #1
    ID                          : 4
    Format                      : UTF-8
    Codec ID                    : S_TEXT/UTF8
    Codec ID/Info               : UTF-8 Plain Text
    Duration                    : 1 h 49 min
    Bit rate                    : 0 b/s
    Count of elements           : 7
    Stream size                 : 269 Bytes (0%)
    Title                       : Forzados-SRT [CinemaniaHDD]
    Language                    : Spanish
    Default                     : Yes
    Forced                      : Yes

    Text #2
    ID                          : 5
    Format                      : UTF-8
    Codec ID                    : S_TEXT/UTF8
    Codec ID/Info               : UTF-8 Plain Text
    Duration                    : 2 h 2 min
    Bit rate                    : 65 b/s
    Count of elements           : 1923
    Stream size                 : 58.7 KiB (0%)
    Title                       : Español-SRT [CinemaniaHDD]
    Language                    : Spanish
    Default                     : No
    Forced                      : No

    Text #3
    ID                          : 6
    Format                      : UTF-8
    Codec ID                    : S_TEXT/UTF8
    Codec ID/Info               : UTF-8 Plain Text
    Duration                    : 2 h 2 min
    Bit rate                    : 85 b/s
    Count of elements           : 2646
    Stream size                 : 76.7 KiB (0%)
    Title                       : Ingles-SRT [CinemaniaHDD]
    Language                    : English
    Default                     : No
    Forced                      : No

  • Peso: 7.88 GiB

Sinopsis

Descargar Los campeones (2023) MA WEB-DL 1080p Latino.Un equipo de baloncesto entrena y compite en las Olimpiadas Especiales bajo la guía de un entrenador imperfecto pero dedicado, Marcus. Remake de la exitosa película de Javier Fesser ‘Campeones’ (2018).

Ficha técnica

  • Titulo original: Champions
  • Fecha de lanzamiento: 09-03-2023 (United States of America)
  • Director: Bobby Farrelly
  • Género: Comedy

Video trailer de la película

Enlaces de descarga

Rip de Bluray

Descargar Los campeones (2023) MA WEB-DL 1080p Latino




Aportes de DPeliculasHDmega la pass es:dpeliculashdmega.org Aportes de CinemaniaHD la pass es:cinemaniahdd.com Aportes recientes:cinemaniahdd.net
Guardado en : Comedy

Películas relacionadas

  • Mi Gran Boda Griega 3 (2023) REMUX 1080p Latino

    Mi Gran Boda Griega 3 (2023) REMUX 1080p Latino

    2023
    Mi Gran Boda Griega 3 (2023) REMUX 1080p Latino

    1h 32m 2023

    Descargar Mi Gran Boda Griega 3 (2023) REMUX 1080p Latino. Acompaña a la familia Portokalos en su viaje...

    Director: Nia Vardalos

    Género: Comedy

    Actores: Tannis Burnett

  • Flora and Son (2023) WEB-DL 1080p Latino

    Flora and Son (2023) WEB-DL 1080p Latino

    2023
    Flora and Son (2023) WEB-DL 1080p Latino

    1h 37m 2023

    Descargar Flora and Son (2023) WEB-DL 1080p Latino. Flora, madre soltera, no tiene idea de qué hacer...

    Director: John Carney

    Género: Comedy

    Actores: Stephen Ryan

  • La Lista (2023) AMZN WEB-DL 1080p Latino

    La Lista (2023) AMZN WEB-DL 1080p Latino

    2023
    La Lista (2023) AMZN WEB-DL 1080p Latino

    1h 37m 2023

    Descargar La Lista (2023) AMZN WEB-DL 1080p Latino. Después de que su prometido se acuesta con una celebridad...

    Director: Melissa Miller Costanzo

    Género: Comedy

    Actores: Zach Reino

  • Mansión embrujada (2023) HD 1080p Latino

    Mansión embrujada (2023) HD 1080p Latino

    2023
    Mansión embrujada (2023) HD 1080p Latino

    2h 3m 2023

    Descargar Mansión embrujada (2023) HD 1080p Latino. Inspirada en la clásica atracción del parque temático,...

    Director: Tyler Wade Vaughn

    Género: Comedy

    Actores: Winona Ryder

descargar Los campeones (2023) MA WEB-DL 1080p Latino WEBDL 1080p gratis, Los campeones (2023) MA WEB-DL 1080p Latino WEBDL mega 1 link, Los campeones (2023) MA WEB-DL 1080p Latino WEBDL pelicula completa, descargar Los campeones (2023) MA WEB-DL 1080p Latino WEBDL gratis en mega.

Los campeones (2023) MA WEB-DL 1080p Latino pelicula full hd, Los campeones (2023) MA WEB-DL 1080p Latino mega latino, Los campeones (2023) MA WEB-DL 1080p Latino 4k latino, Los campeones (2023) MA WEB-DL 1080p Latino pelicula completa, Los campeones (2023) MA WEB-DL 1080p Latino descargar gratis, descargar Los campeones (2023) MA WEB-DL 1080p Latino pelicula latino, Los campeones (2023) MA WEB-DL 1080p Latino 1 link mega, Los campeones (2023) MA WEB-DL 1080p Latino 1 link google drive, Los campeones (2023) MA WEB-DL 1080p Latino hd 1080p latino.
Comentarios 0