×

¿Problemas para descargar con Mozilla, EDGE? Deshabilita la opción "Abrir vinculos en una pestaña nueva" tal como lo muestra ésta imagen.

El Diario De Greg: Las reglas de Rodrick (2022) D+ Web-DL 1080p Latino

64 vistas

Información de El Diario De Greg: Las reglas de Rodrick (2022) D+ Web-DL 1080p Latino

Datos de la película

  • Calidad: WEBDL
  • Audio: Español Latino AC3 5.1 WEB-DL - Ingles AC3 5.1 WEB-DL
  • Subtitulos: Español Latino SRT- FORZADOS SRT
  • Resolución: 1920x1080p
  • Formato: MKV
  • Codec: H.264
  • Encoder: CinemaniaHD
  • Mediainfo: Clic para Mostrar Datos Ver
  • El Diario De Greg Las reglas de Rodrick (2022) D+ WebDL 1080p Latino.mkv
    Format                      : Matroska
    Format version              : Version 4
    File size                   : 3.64 GiB
    Duration                    : 1 h 14 min
    Overall bit rate mode       : Variable
    Overall bit rate            : 7 031 kb/s
    Movie name                  : Diary of a Wimpy Kid 2. Rodrick Rules (2022) CinemaniaHDD.Net
    Encoded date                : UTC 2022-12-02 16:33:07
    Writing application         : mkvmerge v56.1.0 ('My Friend') 64-bit
    Writing library             : libebml v1.4.2 + libmatroska v1.6.4
    Attachments                 : CINEMANIAHD.png

    Video
    ID                          : 1
    Format                      : AVC
    Format/Info                 : Advanced Video Codec
    Format profile              : High@L4
    Format settings             : CABAC / 4 Ref Frames
    Format settings, CABAC      : Yes
    Format settings, Reference  : 4 frames
    Codec ID                    : V_MPEG4/ISO/AVC
    Duration                    : 1 h 14 min
    Bit rate mode               : Variable
    Bit rate                    : 5 556 kb/s
    Maximum bit rate            : 12.7 Mb/s
    Width                       : 1 920 pixels
    Height                      : 1 080 pixels
    Display aspect ratio        : 16:9
    Frame rate mode             : Constant
    Frame rate                  : 24.000 FPS
    Color space                 : YUV
    Chroma subsampling          : 4:2:0
    Bit depth                   : 8 bits
    Scan type                   : Progressive
    Bits/(Pixel*Frame)          : 0.112
    Stream size                 : 2.88 GiB (79%)
    Title                       : Web HD1080p [CinemaniaHDD]
    Language                    : English
    Default                     : Yes
    Forced                      : Yes
    Color range                 : Limited
    Color primaries             : BT.709
    Transfer characteristics    : BT.709
    Matrix coefficients         : BT.709

    Audio #1
    ID                          : 2
    Format                      : AC-3
    Format/Info                 : Audio Coding 3
    Commercial name             : Dolby Digital
    Codec ID                    : A_AC3
    Duration                    : 1 h 14 min
    Bit rate mode               : Constant
    Bit rate                    : 448 kb/s
    Channel(s)                  : 6 channels
    Channel layout              : L R C LFE Ls Rs
    Sampling rate               : 48.0 kHz
    Frame rate                  : 31.250 FPS (1536 SPF)
    Compression mode            : Lossy
    Stream size                 : 238 MiB (6%)
    Title                       : Español Latino AC3 [CinemaniaHDD]
    Language                    : Spanish
    Service kind                : Complete Main
    Default                     : Yes
    Forced                      : Yes

    Audio #2
    ID                          : 3
    Format                      : E-AC-3
    Format/Info                 : Enhanced AC-3
    Commercial name             : Dolby Digital Plus
    Codec ID                    : A_EAC3
    Duration                    : 1 h 14 min
    Bit rate mode               : Constant
    Bit rate                    : 256 kb/s
    Channel(s)                  : 6 channels
    Channel layout              : L R C LFE Ls Rs
    Sampling rate               : 48.0 kHz
    Frame rate                  : 31.250 FPS (1536 SPF)
    Compression mode            : Lossy
    Stream size                 : 136 MiB (4%)
    Title                       : Español Latino EAC3 [CinemaniaHDD]
    Language                    : Spanish
    Service kind                : Complete Main
    Default                     : No
    Forced                      : No

    Audio #3
    ID                          : 4
    Format                      : E-AC-3 JOC
    Format/Info                 : Enhanced AC-3 with Joint Object Coding
    Commercial name             : Dolby Digital Plus with Dolby Atmos
    Codec ID                    : A_EAC3
    Duration                    : 1 h 14 min
    Bit rate mode               : Constant
    Bit rate                    : 768 kb/s
    Channel(s)                  : 6 channels
    Channel layout              : L R C LFE Ls Rs
    Sampling rate               : 48.0 kHz
    Frame rate                  : 31.250 FPS (1536 SPF)
    Compression mode            : Lossy
    Stream size                 : 407 MiB (11%)
    Title                       : Ingles [CinemaniaHDD]
    Language                    : English
    Service kind                : Complete Main
    Default                     : No
    Forced                      : No
    Complexity index            : 16
    Number of dynamic objects   : 15
    Bed channel count           : 1 channel
    Bed channel configuration   : LFE

    Text #1
    ID                          : 5
    Format                      : UTF-8
    Codec ID                    : S_TEXT/UTF8
    Codec ID/Info               : UTF-8 Plain Text
    Duration                    : 1 h 13 min
    Bit rate                    : 0 b/s
    Count of elements           : 4
    Stream size                 : 137 Bytes (0%)
    Title                       : Forzados-SRT [CinemaniaHDD]
    Language                    : Spanish
    Default                     : Yes
    Forced                      : Yes

    Text #2
    ID                          : 6
    Format                      : UTF-8
    Codec ID                    : S_TEXT/UTF8
    Codec ID/Info               : UTF-8 Plain Text
    Duration                    : 1 h 13 min
    Bit rate                    : 65 b/s
    Count of elements           : 995
    Stream size                 : 35.1 KiB (0%)
    Title                       : Español-SRT [CinemaniaHDD]
    Language                    : Spanish
    Default                     : No
    Forced                      : No

    Text #3
    ID                          : 7
    Format                      : UTF-8
    Codec ID                    : S_TEXT/UTF8
    Codec ID/Info               : UTF-8 Plain Text
    Duration                    : 1 h 13 min
    Bit rate                    : 62 b/s
    Count of elements           : 998
    Stream size                 : 33.7 KiB (0%)
    Title                       : Ingles-SRT [CinemaniaHDD]
    Language                    : English
    Default                     : No
    Forced                      : No

  • Peso: 3.64 GiB

Sinopsis

Descargar El Diario De Greg: Las reglas de Rodrick (2022) D+ Web-DL 1080p Latino. Un nuevo año escolar, su hermano Rodrick se burla de él una y otra y otra y otra vez. ¿Conseguirá Greg llevarse bien con él? ¿O un secreto arruinará todo?

Ficha técnica

Video trailer de la película

Enlaces de descarga

Rip de Bluray

Descargar El Diario De Greg: Las reglas de Rodrick (2022) D+ Web-DL 1080p Latino




Aportes de DPeliculasHDmega la pass es:dpeliculashdmega.org Aportes de CinemaniaHD la pass es:cinemaniahdd.com
Guardado en : Animación , Comedia , Familia

Películas relacionadas

  • Mi amigo el dragón (2016) Full HD 1080p Latino

    Mi amigo el dragón (2016) Full HD 1080p Latino

    2016
    Mi amigo el dragón (2016) Full HD 1080p Latino

    1h 43m 2016

    Descargar Mi amigo el dragón (2016) Full HD 1080p Latino. Durante años el Sr. Meacham, un viejo tallador...

    Director: Joe Nolan

    Género: Aventura

    Actores: William J. Rawbone

  • Mi amigo el dragón (2016) REMUX 1080p Latino

    Mi amigo el dragón (2016) REMUX 1080p Latino

    2016
    Mi amigo el dragón (2016) REMUX 1080p Latino

    1h 43m 2016

    Descargar Mi amigo el dragón (2016) REMUX 1080p Latino. Durante años el Sr. Meacham, un viejo tallador...

    Director: Joe Nolan

    Género: Aventura

    Actores: William J. Rawbone

  • Un mundo extraño (2022) HD 1080p Latino

    Un mundo extraño (2022) HD 1080p Latino

    2022
    Un mundo extraño (2022) HD 1080p Latino

    1h 42m 2022

    Descargar Un mundo extraño (2022) HD 1080p Latino. Los Clades son una familia conocida en todo el mundo,...

    Director: Thai Bettistea

    Género: Animación

    Actores: Reed Buck

descargar El Diario De Greg: Las reglas de Rodrick (2022) D+ Web-DL 1080p Latino WEBDL 1080p gratis, El Diario De Greg: Las reglas de Rodrick (2022) D+ Web-DL 1080p Latino WEBDL mega 1 link, El Diario De Greg: Las reglas de Rodrick (2022) D+ Web-DL 1080p Latino WEBDL pelicula completa, descargar El Diario De Greg: Las reglas de Rodrick (2022) D+ Web-DL 1080p Latino WEBDL gratis en mega.

El Diario De Greg: Las reglas de Rodrick (2022) D+ Web-DL 1080p Latino pelicula full hd, El Diario De Greg: Las reglas de Rodrick (2022) D+ Web-DL 1080p Latino mega latino, El Diario De Greg: Las reglas de Rodrick (2022) D+ Web-DL 1080p Latino 4k latino, El Diario De Greg: Las reglas de Rodrick (2022) D+ Web-DL 1080p Latino pelicula completa, El Diario De Greg: Las reglas de Rodrick (2022) D+ Web-DL 1080p Latino descargar gratis, descargar El Diario De Greg: Las reglas de Rodrick (2022) D+ Web-DL 1080p Latino pelicula latino, El Diario De Greg: Las reglas de Rodrick (2022) D+ Web-DL 1080p Latino 1 link mega, El Diario De Greg: Las reglas de Rodrick (2022) D+ Web-DL 1080p Latino 1 link google drive, El Diario De Greg: Las reglas de Rodrick (2022) D+ Web-DL 1080p Latino hd 1080p latino.
Comentarios 0