×

¿Problemas para descargar con Mozilla, EDGE? Deshabilita la opción "Abrir vinculos en una pestaña nueva" tal como lo muestra ésta imagen.

Ghosts (2024) Temporada 3 AMZN WEB-DL 1080p Latino

65 vistas

Información de Ghosts (2024) Temporada 3 AMZN WEB-DL 1080p Latino

Datos de la película

  • Calidad: 1080p
  • Audio: Español Latino AC3 2.0 WEB-DL - Ingles AC3 2.0 WEB-DL
  • Subtitulos: Español Latino SRT - Ingles SRT
  • Resolución: 1920x1080
  • Formato: MKV
  • Codec: H.264
  • Encoder: cinemaniahdd
  • Mediainfo: Clic para Mostrar Datos Ver
  • Ghosts T03E01 AMZN WEB-DL 1080p Latino [CNMNHDD].mkv
    Format                      : Matroska
    Format version              : Version 4
    File size                   : 1.54 GiB
    Duration                    : 21 min 19 s
    Overall bit rate            : 10.3 Mb/s
    Movie name                  : Ghosts S03E01 - El buho [1080p] - CinemaniaHDD.Net
    Encoded date                : UTC 2024-06-14 23:31:33
    Writing application         : mkvmerge v56.1.0 ('My Friend') 64-bit
    Writing library             : libebml v1.4.2 + libmatroska v1.6.4

    Video
    ID                          : 1
    Format                      : AVC
    Format/Info                 : Advanced Video Codec
    Format profile              : High@L4
    Format settings             : CABAC / 4 Ref Frames
    Format settings, CABAC      : Yes
    Format settings, Reference  : 4 frames
    Codec ID                    : V_MPEG4/ISO/AVC
    Duration                    : 21 min 19 s
    Bit rate mode               : Constant
    Bit rate                    : 9 485 kb/s
    Nominal bit rate            : 10 000 kb/s
    Width                       : 1 920 pixels
    Height                      : 1 080 pixels
    Display aspect ratio        : 16:9
    Frame rate mode             : Constant
    Frame rate                  : 29.970 (30000/1001) FPS
    Color space                 : YUV
    Chroma subsampling          : 4:2:0
    Bit depth                   : 8 bits
    Scan type                   : Progressive
    Bits/(Pixel*Frame)          : 0.153
    Stream size                 : 1.41 GiB (92%)
    Title                       : CinemaniaHDD
    Default                     : Yes
    Forced                      : No
    Color range                 : Limited
    Color primaries             : BT.709
    Transfer characteristics    : BT.709
    Matrix coefficients         : BT.709

    Audio #1
    ID                          : 2
    Format                      : AC-3
    Format/Info                 : Audio Coding 3
    Commercial name             : Dolby Digital
    Codec ID                    : A_AC3
    Duration                    : 21 min 19 s
    Bit rate mode               : Constant
    Bit rate                    : 384 kb/s
    Channel(s)                  : 2 channels
    Channel layout              : L R
    Sampling rate               : 48.0 kHz
    Frame rate                  : 31.250 FPS (1536 SPF)
    Compression mode            : Lossy
    Stream size                 : 58.6 MiB (4%)
    Title                       : Español latino (AC3) [CinemaniaHDD]
    Language                    : Spanish
    Service kind                : Complete Main
    Default                     : Yes
    Forced                      : No

    Audio #2
    ID                          : 3
    Format                      : E-AC-3
    Format/Info                 : Enhanced AC-3
    Commercial name             : Dolby Digital Plus
    Codec ID                    : A_EAC3
    Duration                    : 21 min 19 s
    Bit rate mode               : Constant
    Bit rate                    : 224 kb/s
    Channel(s)                  : 2 channels
    Channel layout              : L R
    Sampling rate               : 48.0 kHz
    Frame rate                  : 31.250 FPS (1536 SPF)
    Compression mode            : Lossy
    Stream size                 : 34.2 MiB (2%)
    Title                       : Español latino (E-AC3) [CinemaniaHDD]
    Language                    : Spanish
    Service kind                : Complete Main
    Default                     : No
    Forced                      : No

    Audio #3
    ID                          : 4
    Format                      : E-AC-3
    Format/Info                 : Enhanced AC-3
    Commercial name             : Dolby Digital Plus
    Codec ID                    : A_EAC3
    Duration                    : 21 min 19 s
    Bit rate mode               : Constant
    Bit rate                    : 224 kb/s
    Channel(s)                  : 2 channels
    Channel layout              : L R
    Sampling rate               : 48.0 kHz
    Frame rate                  : 31.250 FPS (1536 SPF)
    Compression mode            : Lossy
    Stream size                 : 34.2 MiB (2%)
    Title                       : Inglés (Original) [CinemaniaHDD]
    Language                    : English
    Service kind                : Complete Main
    Default                     : No
    Forced                      : No

    Text
    ID                          : 5
    Format                      : UTF-8
    Codec ID                    : S_TEXT/UTF8
    Codec ID/Info               : UTF-8 Plain Text
    Duration                    : 20 min 25 s
    Bit rate                    : 111 b/s
    Count of elements           : 540
    Stream size                 : 16.7 KiB (0%)
    Title                       : Español latino [CinemaniaHDD]
    Language                    : Spanish
    Default                     : No
    Forced                      : No

     

  • Peso: 1.54 GiB C/U --- 5 CAPÍTULOS DISPONIBLES

Sinopsis

Una joven pareja hereda una hermosa casa de campo y luego se encuentra con que está habitada por los fantasmas.
5 CAPÍTULOS DISPONIBLES

Ficha técnica

  • Titulo original: Ghosts
  • Fecha de lanzamiento: 07-10-2021 (US)
  • Género: Comedia, Series

Video trailer de la película

Enlaces de descarga

Rip de Bluray

Descargar Ghosts (2024) Temporada 3 AMZN WEB-DL 1080p Latino




Aportes de DPeliculasHDmega la pass es:dpeliculashdmega.org Aportes de CinemaniaHD la pass es:cinemaniahdd.com Aportes recientes:cinemaniahdd.net
Guardado en : Comedia , Series

Películas relacionadas

  • Scary Movie 5 (2013) REMUX 1080p Latino – CMHDD

    Scary Movie 5 (2013) REMUX 1080p Latino – CMHDD

    2013
    Scary Movie 5 (2013) REMUX 1080p Latino – CMHDD

    1h 28m 2013

    Los felizmente casados Dan y Jody empiezan a observar algunos fenómenos extraños en su casa tras volver...

    Director: Tim Fitzgerald

    Género: Comedia

    Actores: Zoe Pessin

  • Scary Movie 4 (2006) REMUX 1080p Latino – CMHDD

    Scary Movie 4 (2006) REMUX 1080p Latino – CMHDD

    2006
    Scary Movie 4 (2006) REMUX 1080p Latino – CMHDD

    1h 29m 2006

    Una nueva entrega de la franquicia que parodia los últimos títulos del cine americano. Esta vez, la...

    Director: Steve Eathorne

    Género: Comedia

    Actores: YoungBloodZ

  • Scary Movie 3 (2003) REMUX 1080p Latino – CMHDD

    Scary Movie 3 (2003) REMUX 1080p Latino – CMHDD

    2003
    Scary Movie 3 (2003) REMUX 1080p Latino – CMHDD

    1h 25m 2003

    Después de haberlo pasado fatal -eso siempre según se mire- en las dos anteriores entregas, Cindy Campbell...

    Director: Wendy L. Adjoury

    Género: Comedia

    Actores: William S. Taylor

  • Scary Movie (2000) REMUX 1080p Latino – CMHDD

    Scary Movie (2000) REMUX 1080p Latino – CMHDD

    2000
    Scary Movie (2000) REMUX 1080p Latino – CMHDD

    1h 28m 2000

    Tras el asesinato de una bella estudiante, un grupo de adolescentes descubren que hay un asesino entre...

    Director: William D. Robinson

    Género: Comedia

    Actores: Zahf Paroo

descargar Ghosts (2024) Temporada 3 AMZN WEB-DL 1080p Latino 1080p 1080p gratis, Ghosts (2024) Temporada 3 AMZN WEB-DL 1080p Latino 1080p mega 1 link, Ghosts (2024) Temporada 3 AMZN WEB-DL 1080p Latino 1080p serie completa, descargar Ghosts (2024) Temporada 3 AMZN WEB-DL 1080p Latino 1080p gratis en mega.

Ghosts (2024) Temporada 3 AMZN WEB-DL 1080p Latino pelicula full hd, Ghosts (2024) Temporada 3 AMZN WEB-DL 1080p Latino mega latino, Ghosts (2024) Temporada 3 AMZN WEB-DL 1080p Latino 4k latino, Ghosts (2024) Temporada 3 AMZN WEB-DL 1080p Latino pelicula completa, Ghosts (2024) Temporada 3 AMZN WEB-DL 1080p Latino descargar gratis, descargar Ghosts (2024) Temporada 3 AMZN WEB-DL 1080p Latino pelicula latino, Ghosts (2024) Temporada 3 AMZN WEB-DL 1080p Latino 1 link mega, Ghosts (2024) Temporada 3 AMZN WEB-DL 1080p Latino 1 link google drive, Ghosts (2024) Temporada 3 AMZN WEB-DL 1080p Latino hd 1080p latino.
Comentarios 0