×

¿Problemas para descargar con Mozilla, EDGE? Deshabilita la opción "Abrir vinculos en una pestaña nueva" tal como lo muestra ésta imagen.

Ladybug. En busca del Cañón Dorado (2018) WEB-DL 1080p Latino

609 vistas

Información de Ladybug. En busca del Cañón Dorado (2018) WEB-DL 1080p Latino

Datos de la película

  • Calidad: WEBDL
  • Audio: Español Latino AC3 2.0 iTunes - Ingles AC3 5.1 iTunes
  • Subtitulos: Español Latino SRT- FORZADOS SRT
  • Resolución: 1912x792
  • Formato: MKV
  • Codec: H.264
  • Encoder: cinemaniahd
  • Mediainfo: Clic para Mostrar Datos Ver
  • Ladybug_ Aventura de los insectos (1\Ladybug Aventura de los insectos (2018) WEBDL 1080p Latino.mkv
    Format                      : Matroska
    Format version              : Version 4
    File size                   : 2.67 GiB
    Duration                    : 1 h 15 min
    Overall bit rate            : 5 054 kb/s
    Movie name                  : Ladybug Aventura de los insectos (2018) WEBDL 1080p Latino
    Encoded date                : UTC 2019-11-06 02:18:33
    Writing application         : mkvmerge v38.0.0 ('The Silent Type') 64-bit
    Writing library             : libebml v1.3.9 + libmatroska v1.5.2

    Video
    ID                          : 1
    Format                      : AVC
    Format/Info                 : Advanced Video Codec
    Format profile              : High@L4
    Format settings             : CABAC / 5 Ref Frames
    Format settings, CABAC      : Yes
    Format settings, ReFrames   : 5 frames
    Codec ID                    : V_MPEG4/ISO/AVC
    Duration                    : 1 h 15 min
    Bit rate                    : 4 476 kb/s
    Width                       : 1 912 pixels
    Height                      : 792 pixels
    Display aspect ratio        : 2.40:1
    Frame rate mode             : Constant
    Frame rate                  : 24.000 FPS
    Color space                 : YUV
    Chroma subsampling          : 4:2:0
    Bit depth                   : 8 bits
    Scan type                   : Progressive
    Bits/(Pixel*Frame)          : 0.123
    Stream size                 : 2.36 GiB (89%)
    Title                       : CinemaniaHDD
    Language                    : English
    Default                     : Yes
    Forced                      : No
    Color range                 : Limited
    Color primaries             : BT.709
    Transfer characteristics    : BT.709
    Matrix coefficients         : BT.709

    Audio #1
    ID                          : 2
    Format                      : AC-3
    Format/Info                 : Audio Coding 3
    Commercial name             : Dolby Digital
    Codec ID                    : A_AC3
    Duration                    : 1 h 15 min
    Bit rate mode               : Constant
    Bit rate                    : 192 kb/s
    Channel(s)                  : 2 channels
    Channel layout              : L R
    Sampling rate               : 48.0 kHz
    Frame rate                  : 31.250 FPS (1536 SPF)
    Bit depth                   : 16 bits
    Compression mode            : Lossy
    Delay relative to video     : -42 ms
    Stream size                 : 104 MiB (4%)
    Title                       : Español latino [CinemaniaHDD]
    Language                    : Spanish
    Service kind                : Complete Main
    Default                     : Yes
    Forced                      : No

    Audio #2
    ID                          : 3
    Format                      : AC-3
    Format/Info                 : Audio Coding 3
    Commercial name             : Dolby Digital
    Codec ID                    : A_AC3
    Duration                    : 1 h 15 min
    Bit rate mode               : Constant
    Bit rate                    : 384 kb/s
    Channel(s)                  : 6 channels
    Channel layout              : L R C LFE Ls Rs
    Sampling rate               : 48.0 kHz
    Frame rate                  : 31.250 FPS (1536 SPF)
    Bit depth                   : 16 bits
    Compression mode            : Lossy
    Delay relative to video     : -42 ms
    Stream size                 : 208 MiB (8%)
    Title                       : Inglés [CinemaniaHDD]
    Language                    : English
    Service kind                : Complete Main
    Default                     : No
    Forced                      : No

    Text #1
    ID                          : 4
    Format                      : UTF-8
    Codec ID                    : S_TEXT/UTF8
    Codec ID/Info               : UTF-8 Plain Text
    Duration                    : 1 h 13 min
    Bit rate                    : 0 b/s
    Count of elements           : 11
    Stream size                 : 187 Bytes (0%)
    Title                       : Forzados [CinemaniaHDD]
    Language                    : Spanish
    Default                     : Yes
    Forced                      : No

    Text #2
    ID                          : 5
    Format                      : UTF-8
    Codec ID                    : S_TEXT/UTF8
    Codec ID/Info               : UTF-8 Plain Text
    Duration                    : 1 h 14 min
    Bit rate                    : 44 b/s
    Count of elements           : 834
    Stream size                 : 24.2 KiB (0%)
    Title                       : Español latino [CinemaniaHDD]
    Language                    : Spanish
    Default                     : No
    Forced                      : No

    Menu
    00:00:00.000                : en:Capítulo 1
    00:11:37.000                : en:Capítulo 2
    00:22:17.625                : en:Capítulo 3
    00:33:40.000                : en:Capítulo 4
    00:44:10.791                : en:Capítulo 5
    00:55:43.957                : en:Capítulo 6
    01:04:39.415                : en:Capítulo 7

  • Peso: 2.67 GiB

Sinopsis

Rube, una mariquita de siete lunares, intenta liberar a su amiga, la libélula Aguamaster, para viajar hasta el Cañón Dorado, paraíso de los insectos

Ficha técnica

  • Titulo original: 金龟子
  • Fecha de lanzamiento: 02-02-2018 (China, United States of America)
  • Director: Ding Shi
  • Género: Animación, Familia

Video trailer de la película

Enlaces de descarga

Rip de Bluray

Descargar Ladybug. En busca del Cañón Dorado (2018) WEB-DL 1080p Latino




Aportes de DPeliculasHDmega la pass es:dpeliculashdmega.org Aportes de CinemaniaHD la pass es:cinemaniahdd.com
Guardado en : Animación , Familia

Películas relacionadas

  • Hocus Pocus: Abracadabra (1993) 1080p Latino

    Hocus Pocus: Abracadabra (1993) 1080p Latino

    1993
    Hocus Pocus: Abracadabra (1993) 1080p Latino

    1h 36m 1993

    Descargar Hocus Pocus: Abracadabra (1993) 1080p Latino. Tres brujas del siglo XII son invocadas durante...

    Director: Kenny Ortega

    Género: Comedia

    Actores: Vinessa Shaw

  • Hocus Pocus: Abracadabra (1993) REMUX 1080p Latino

    Hocus Pocus: Abracadabra (1993) REMUX 1080p Latino

    1993
    Hocus Pocus: Abracadabra (1993) REMUX 1080p Latino

    1h 36m 1993

    Descargar Hocus Pocus: Abracadabra (1993) REMUX 1080p Latino. Tres brujas del siglo XII son invocadas...

    Director: Kenny Ortega

    Género: Comedia

    Actores: Vinessa Shaw

  • DC Liga De Supermascotas (2022) HD 1080p Latino

    DC Liga De Supermascotas (2022) HD 1080p Latino

    2022
    DC Liga De Supermascotas (2022) HD 1080p Latino

    1h 45m 2022

    Descargar DC Liga De Supermascotas (2022) HD 1080p Latino. Krypto el Superperro y Superman son amigos...

    Director: Sam Levine

    Género: Acción

    Actores: Yvette Nicole Brown

descargar Ladybug. En busca del Cañón Dorado (2018) WEB-DL 1080p Latino WEBDL 1080p gratis, Ladybug. En busca del Cañón Dorado (2018) WEB-DL 1080p Latino WEBDL mega 1 link, Ladybug. En busca del Cañón Dorado (2018) WEB-DL 1080p Latino WEBDL pelicula completa, descargar Ladybug. En busca del Cañón Dorado (2018) WEB-DL 1080p Latino WEBDL gratis en mega.

Ladybug. En busca del Cañón Dorado (2018) WEB-DL 1080p Latino pelicula full hd, Ladybug. En busca del Cañón Dorado (2018) WEB-DL 1080p Latino mega latino, Ladybug. En busca del Cañón Dorado (2018) WEB-DL 1080p Latino 4k latino, Ladybug. En busca del Cañón Dorado (2018) WEB-DL 1080p Latino pelicula completa, Ladybug. En busca del Cañón Dorado (2018) WEB-DL 1080p Latino descargar gratis, descargar Ladybug. En busca del Cañón Dorado (2018) WEB-DL 1080p Latino pelicula latino, Ladybug. En busca del Cañón Dorado (2018) WEB-DL 1080p Latino 1 link mega, Ladybug. En busca del Cañón Dorado (2018) WEB-DL 1080p Latino 1 link google drive, Ladybug. En busca del Cañón Dorado (2018) WEB-DL 1080p Latino hd 1080p latino.
Comentarios 0