×

¿Problemas para descargar con Mozilla, EDGE? Deshabilita la opción "Abrir vinculos en una pestaña nueva" tal como lo muestra ésta imagen.

La Familia Monster 2 (2021) REMUX 1080p Latino

43 vistas

Información de La Familia Monster 2 (2021) REMUX 1080p Latino

Datos de la película

  • Calidad: Full 1080p
  • Audio: Español Latino AC3 5.1 WEB-DL - Ingles DTS 5.1 BLURAY
  • Subtitulos: Español Latino SRT- FORZADOS SRT
  • Resolución: 1920x1080p
  • Formato: MKV
  • Codec: H.264
  • Encoder: Melkor
  • Mediainfo: Clic para Mostrar Datos Ver
  • La Familia Monster 2 (2021) REMUX 1080p Latino.mkv
    Format                      : Matroska
    Format version              : Version 4
    File size                   : 16.8 GiB
    Duration                    : 1 h 43 min
    Overall bit rate mode       : Variable
    Overall bit rate            : 23.4 Mb/s
    Movie name                  : Monster Family 2 (2021) CinemaniaHDD.Net
    Encoded date                : UTC 2022-10-13 06:06:07
    Writing application         : mkvmerge v56.1.0 ('My Friend') 64-bit
    Writing library             : libebml v1.4.2 + libmatroska v1.6.4
    Attachments                 : CINEMANIAHD.png

    Video
    ID                          : 1
    Format                      : AVC
    Format/Info                 : Advanced Video Codec
    Format profile              : High@L4.1
    Format settings             : CABAC / 3 Ref Frames
    Format settings, CABAC      : Yes
    Format settings, Reference  : 3 frames
    Format settings, GOP        : M=1, N=12
    Codec ID                    : V_MPEG4/ISO/AVC
    Duration                    : 1 h 43 min
    Bit rate mode               : Variable
    Bit rate                    : 19.9 Mb/s
    Maximum bit rate            : 26.0 Mb/s
    Width                       : 1 920 pixels
    Height                      : 1 080 pixels
    Display aspect ratio        : 16:9
    Frame rate mode             : Constant
    Frame rate                  : 23.976 (24000/1001) FPS
    Color space                 : YUV
    Chroma subsampling          : 4:2:0
    Bit depth                   : 8 bits
    Scan type                   : Progressive
    Bits/(Pixel*Frame)          : 0.400
    Stream size                 : 14.3 GiB (85%)
    Title                       : REMUX HD1080p [CinemaniaHDD]
    Language                    : English
    Default                     : Yes
    Forced                      : Yes

    Audio #1
    ID                          : 2
    Format                      : AC-3
    Format/Info                 : Audio Coding 3
    Commercial name             : Dolby Digital
    Codec ID                    : A_AC3
    Duration                    : 1 h 43 min
    Bit rate mode               : Constant
    Bit rate                    : 640 kb/s
    Channel(s)                  : 6 channels
    Channel layout              : L R C LFE Ls Rs
    Sampling rate               : 48.0 kHz
    Frame rate                  : 31.250 FPS (1536 SPF)
    Compression mode            : Lossy
    Stream size                 : 472 MiB (3%)
    Title                       : Español Latino AC3 [CinemaniaHDD]
    Language                    : Spanish
    Service kind                : Complete Main
    Default                     : Yes
    Forced                      : Yes

    Audio #2
    ID                          : 3
    Format                      : E-AC-3
    Format/Info                 : Enhanced AC-3
    Commercial name             : Dolby Digital Plus
    Codec ID                    : A_EAC3
    Duration                    : 1 h 43 min
    Bit rate mode               : Constant
    Bit rate                    : 640 kb/s
    Channel(s)                  : 6 channels
    Channel layout              : L R C LFE Ls Rs
    Sampling rate               : 48.0 kHz
    Frame rate                  : 31.250 FPS (1536 SPF)
    Compression mode            : Lossy
    Delay relative to video     : 21 ms
    Stream size                 : 472 MiB (3%)
    Title                       : Español Latino EAC3 [CinemaniaHDD]
    Language                    : Spanish
    Service kind                : Complete Main
    Default                     : No
    Forced                      : No

    Audio #3
    ID                          : 4
    Format                      : DTS XLL
    Format/Info                 : Digital Theater Systems
    Commercial name             : DTS-HD Master Audio
    Codec ID                    : A_DTS
    Duration                    : 1 h 43 min
    Bit rate mode               : Variable
    Bit rate                    : 2 234 kb/s
    Channel(s)                  : 6 channels
    Channel layout              : C L R Ls Rs LFE
    Sampling rate               : 48.0 kHz
    Frame rate                  : 93.750 FPS (512 SPF)
    Bit depth                   : 16 bits
    Compression mode            : Lossless
    Stream size                 : 1.61 GiB (10%)
    Title                       : Ingles [CinemaniaHDD]
    Language                    : English
    Default                     : No
    Forced                      : No

    Text #1
    ID                          : 5
    Format                      : UTF-8
    Codec ID                    : S_TEXT/UTF8
    Codec ID/Info               : UTF-8 Plain Text
    Duration                    : 1 h 26 min
    Bit rate                    : 0 b/s
    Count of elements           : 3
    Stream size                 : 62.0 Bytes (0%)
    Title                       : Forzados-SRT [CinemaniaHDD]
    Language                    : Spanish
    Default                     : Yes
    Forced                      : Yes

    Text #2
    ID                          : 6
    Format                      : UTF-8
    Codec ID                    : S_TEXT/UTF8
    Codec ID/Info               : UTF-8 Plain Text
    Duration                    : 1 h 35 min
    Bit rate                    : 57 b/s
    Count of elements           : 1172
    Stream size                 : 40.1 KiB (0%)
    Title                       : Español-SRT [CinemaniaHDD]
    Language                    : Spanish
    Default                     : No
    Forced                      : No

    Text #3
    ID                          : 7
    Format                      : PGS
    Muxing mode                 : zlib
    Codec ID                    : S_HDMV/PGS
    Codec ID/Info               : Picture based subtitle format used on BDs/HD-DVDs
    Duration                    : 1 h 41 min
    Bit rate                    : 33.5 kb/s
    Count of elements           : 2726
    Stream size                 : 24.4 MiB (0%)
    Title                       : Ingles [CinemaniaHDD]
    Language                    : English
    Default                     : No
    Forced                      : No

    Menu
    00:00:00.000                : Chapter 01
    00:08:53.950                : Chapter 02
    00:15:33.141                : Chapter 03
    00:26:25.876                : Chapter 04
    00:34:25.480                : Chapter 05
    00:41:12.929                : Chapter 06
    00:53:16.819                : Chapter 07
    01:01:05.620                : Chapter 08
    01:08:00.410                : Chapter 09
    01:16:22.244                : Chapter 10
    01:24:36.405                : Chapter 11
    01:34:45.847                : Chapter 12

  • Peso: 16.8 GiB

Sinopsis

Descargar La Familia Monster 2 (2021) REMUX 1080p Latino. Para rescatar a Baba Yaga y Renfield de las garras de la cazadora de monstruos Mila Starr, la familia Wishbone se transforma una vez más en, un vampiro, Frankenstein, la momia y el hombre lobo. Con la ayuda de sus tres murciélagos mascota, nuestra Familia Monstruo vuelve a recorrer el mundo para salvar a sus amigos, hacer nuevos mountruo-conocidos y finalmente darse cuenta que “Nadie es perfecto”… incluso aquellos con defectos pueden encontrar la felicidad.

Nota: Disponible Solo Para VIP!!!

Ficha técnica

Video trailer de la película

Enlaces de descarga

Rip de Bluray

Descargar La Familia Monster 2 (2021) REMUX 1080p Latino


Aportes de DPeliculasHDmega la pass es:dpeliculashdmega.org Aportes de CinemaniaHD la pass es:cinemaniahdd.com
Guardado en : Animación , Familia , Remux

Películas relacionadas

  • Scrooge: Cuento De Navidad (2022) NF WEB-DL 1080p Latino

    Scrooge: Cuento De Navidad (2022) NF WEB-DL 1080p Latino

    2022
    Scrooge: Cuento De Navidad (2022) NF WEB-DL 1080p Latino

    1h 37m 2022

    Descargar Scrooge Cuento De Navidad (2022) NF WEB-DL 1080p Latino. En la víspera de Navidad, el egoísta...

    Director: Stephen Donnelly

    Género: Animación

    Actores: Trevor Dion Nicholas

  • Super… ¿quién? (2021) REMUX 1080p Latino

    Super… ¿quién? (2021) REMUX 1080p Latino

    2022
    Super… ¿quién? (2021) REMUX 1080p Latino

    1h 22m 2022

    Descargar Super... ¿quién? (2021) REMUX 1080p Latino. Cedric (Philippe Lacheau) intenta ganarse la...

    Director: Philippe Lacheau

    Género: Acción

    Actores: Yves Yan

  • Observada (2022) REMUX 1080p Latino

    Observada (2022) REMUX 1080p Latino

    2022
    Observada (2022) REMUX 1080p Latino

    1h 35m 2022

    Descargar Observada (2022) REMUX 1080p Latino. Una joven se muda a un nuevo apartamento con su prometido...

    Director: Chloe Okuno

    Género: Misterio

    Actores: Tudor Petruț

  • Puss in Boots (2011) REMUX 4K HDR Latino – CMHDD

    Puss in Boots (2011) REMUX 4K HDR Latino – CMHDD

    2011
    Puss in Boots (2011) REMUX 4K HDR Latino – CMHDD

    1h 30m 2011

    Mucho antes de que conociera a Shrek, el conocido espadachín, amante y fuera de la ley Gato con Botas...

    Director: Judah Mambu

    Género: Acción

    Actores: Zach Galifianakis

descargar La Familia Monster 2 (2021) REMUX 1080p Latino Full 1080p 1080p gratis, La Familia Monster 2 (2021) REMUX 1080p Latino Full 1080p mega 1 link, La Familia Monster 2 (2021) REMUX 1080p Latino Full 1080p pelicula completa, descargar La Familia Monster 2 (2021) REMUX 1080p Latino Full 1080p gratis en mega.

La Familia Monster 2 (2021) REMUX 1080p Latino pelicula full hd, La Familia Monster 2 (2021) REMUX 1080p Latino mega latino, La Familia Monster 2 (2021) REMUX 1080p Latino 4k latino, La Familia Monster 2 (2021) REMUX 1080p Latino pelicula completa, La Familia Monster 2 (2021) REMUX 1080p Latino descargar gratis, descargar La Familia Monster 2 (2021) REMUX 1080p Latino pelicula latino, La Familia Monster 2 (2021) REMUX 1080p Latino 1 link mega, La Familia Monster 2 (2021) REMUX 1080p Latino 1 link google drive, La Familia Monster 2 (2021) REMUX 1080p Latino hd 1080p latino.
Comentarios 0