×

¿Problemas para descargar con Mozilla, EDGE? Deshabilita la opción "Abrir vinculos en una pestaña nueva" tal como lo muestra ésta imagen.

La Familia Addams (1991) REMUX 1080p Latino

926 vistas

Información de La Familia Addams (1991) REMUX 1080p Latino

Datos de la película

  • Calidad: Full 1080p
  • Audio: Español Latino AC3 2.0 BLURAY - Ingles DTS 5.1 BLURAY
  • Subtitulos: Español Latino SRT- FORZADOS SRT
  • Resolución: 1920x1080p
  • Formato: MKV
  • Codec: H.264
  • Encoder: Dracarys
  • Mediainfo: Clic para Mostrar Datos Ver
  • Format                      : Matroska
    Format version              : Version 4
    File size                   : 16.4 GiB
    Duration                    : 1 h 39 min
    Overall bit rate mode       : Variable
    Overall bit rate            : 23.4 Mb/s
    Movie name                  : CinemaniaHDD.net
    Encoded date                : UTC 2019-09-08 22:02:37
    Writing application         : mkvmerge v35.0.0 ('All The Love In The World') 64-bit
    Writing library             : libebml v1.3.9 + libmatroska v1.5.2

    Video
    ID                          : 1
    Format                      : AVC
    Format/Info                 : Advanced Video Codec
    Format profile              : High@L4.1
    Format settings             : CABAC / 4 Ref Frames
    Format settings, CABAC      : Yes
    Format settings, ReFrames   : 4 frames
    Codec ID                    : V_MPEG4/ISO/AVC
    Duration                    : 1 h 39 min
    Bit rate mode               : Variable
    Bit rate                    : 19.0 Mb/s
    Maximum bit rate            : 36.0 Mb/s
    Width                       : 1 920 pixels
    Height                      : 1 080 pixels
    Display aspect ratio        : 16:9
    Frame rate mode             : Constant
    Frame rate                  : 23.976 (24000/1001) FPS
    Color space                 : YUV
    Chroma subsampling          : 4:2:0
    Bit depth                   : 8 bits
    Scan type                   : Progressive
    Bits/(Pixel*Frame)          : 0.382
    Stream size                 : 13.3 GiB (81%)
    Language                    : English
    Default                     : No
    Forced                      : No
    Color range                 : Limited
    Color primaries             : BT.709
    Transfer characteristics    : BT.709
    Matrix coefficients         : BT.709

    Audio #1
    ID                          : 2
    Format                      : DTS XLL
    Format/Info                 : Digital Theater Systems
    Commercial name             : DTS-HD Master Audio
    Codec ID                    : A_DTS
    Duration                    : 1 h 39 min
    Bit rate mode               : Variable
    Bit rate                    : 4 209 kb/s
    Channel(s)                  : 6 channels
    Channel layout              : C L R Ls Rs LFE
    Sampling rate               : 48.0 kHz
    Frame rate                  : 93.750 FPS (512 SPF)
    Bit depth                   : 24 bits
    Compression mode            : Lossless
    Stream size                 : 2.94 GiB (18%)
    Language                    : English
    Default                     : No
    Forced                      : No

    Audio #2
    ID                          : 3
    Format                      : AC-3
    Format/Info                 : Audio Coding 3
    Commercial name             : Dolby Digital
    Codec ID                    : A_AC3
    Duration                    : 1 h 39 min
    Bit rate mode               : Constant
    Bit rate                    : 224 kb/s
    Channel(s)                  : 2 channels
    Channel layout              : L R
    Sampling rate               : 48.0 kHz
    Frame rate                  : 31.250 FPS (1536 SPF)
    Bit depth                   : 16 bits
    Compression mode            : Lossy
    Stream size                 : 160 MiB (1%)
    Language                    : Spanish
    Service kind                : Complete Main
    Default                     : Yes
    Forced                      : No

    Text #1
    ID                          : 4
    Format                      : PGS
    Muxing mode                 : zlib
    Codec ID                    : S_HDMV/PGS
    Codec ID/Info               : Picture based subtitle format used on BDs/HD-DVDs
    Duration                    : 1 h 39 min
    Bit rate                    : 31.5 kb/s
    Count of elements           : 2194
    Stream size                 : 22.5 MiB (0%)
    Language                    : Spanish
    Default                     : No
    Forced                      : No

    Text #2
    ID                          : 5
    Format                      : PGS
    Muxing mode                 : zlib
    Codec ID                    : S_HDMV/PGS
    Codec ID/Info               : Picture based subtitle format used on BDs/HD-DVDs
    Duration                    : 1 h 39 min
    Bit rate                    : 248 b/s
    Count of elements           : 28
    Stream size                 : 182 KiB (0%)
    Language                    : Spanish
    Default                     : No
    Forced                      : No

    Text #3
    ID                          : 6
    Format                      : UTF-8
    Codec ID                    : S_TEXT/UTF8
    Codec ID/Info               : UTF-8 Plain Text
    Duration                    : 1 h 34 min
    Bit rate                    : 52 b/s
    Count of elements           : 1095
    Stream size                 : 36.3 KiB (0%)
    Language                    : Spanish
    Default                     : No
    Forced                      : No

    Text #4
    ID                          : 7
    Format                      : UTF-8
    Codec ID                    : S_TEXT/UTF8
    Codec ID/Info               : UTF-8 Plain Text
    Duration                    : 1 h 9 min
    Bit rate                    : 0 b/s
    Count of elements           : 12
    Stream size                 : 247 Bytes (0%)
    Language                    : Spanish
    Default                     : Yes
    Forced                      : Yes

    Menu
    00:00:00.000                : en:Chapter 01
    00:04:56.379                : en:Chapter 02
    00:09:01.624                : en:Chapter 03
    00:14:23.487                : en:Chapter 04
    00:21:07.266                : en:Chapter 05
    00:23:39.418                : en:Chapter 06
    00:29:35.106                : en:Chapter 07
    00:37:41.384                : en:Chapter 08
    00:46:16.815                : en:Chapter 09
    00:53:51.186                : en:Chapter 10
    01:00:33.129                : en:Chapter 11
    01:06:57.805                : en:Chapter 12
    01:17:07.956                : en:Chapter 13
    01:17:57.005                : en:Chapter 14
    01:23:38.680                : en:Chapter 15
    01:26:26.222                : en:Chapter 16
    01:31:21.476                : en:Chapter 17
    01:35:17.795                : en:Chapter 18

  • Peso: 16.4 GiB

Sinopsis

El delirante y gótico estilo de vida de la peculiar familia Addams se ve amenazado peligrosamente cuando el codicioso dúo que forman madre e hijo, con la ayuda de un abogado sin ningún escrúpulos, conspiran para hacerse con la fortuna familiar…

Ficha técnica

Video trailer de la película

Enlaces de descarga

Rip de Bluray

Descargar La Familia Addams (1991) REMUX 1080p Latino




Aportes de DPeliculasHDmega la pass es:dpeliculashdmega.org Aportes de CinemaniaHD la pass es:cinemaniahdd.com
Guardado en : Comedia , Fantasía , Remux , Terror

Películas relacionadas

descargar La Familia Addams (1991) REMUX 1080p Latino Full 1080p 1080p gratis, La Familia Addams (1991) REMUX 1080p Latino Full 1080p mega 1 link, La Familia Addams (1991) REMUX 1080p Latino Full 1080p pelicula completa, descargar La Familia Addams (1991) REMUX 1080p Latino Full 1080p gratis en mega.

La Familia Addams (1991) REMUX 1080p Latino pelicula full hd, La Familia Addams (1991) REMUX 1080p Latino mega latino, La Familia Addams (1991) REMUX 1080p Latino 4k latino, La Familia Addams (1991) REMUX 1080p Latino pelicula completa, La Familia Addams (1991) REMUX 1080p Latino descargar gratis, descargar La Familia Addams (1991) REMUX 1080p Latino pelicula latino, La Familia Addams (1991) REMUX 1080p Latino 1 link mega, La Familia Addams (1991) REMUX 1080p Latino 1 link google drive, La Familia Addams (1991) REMUX 1080p Latino hd 1080p latino.
Comentarios 0