Kung Fu Panda (2008) Full 1080p Latino

1.212 vistas
1 estrella2 estrellas3 estrellas4 estrellas5 estrellas (2 votos, promedio: 5,00 de 5)
Cargando…

Información de Kung Fu Panda (2008) Full 1080p Latino

Datos de la película

  • Calidad: Full 1080p
  • Audio: Español Latino AC3 5.1 BLURAY - Ingles DTS 5.1 BLURAY
  • Subtitulos: Español Latino PGS - Ingles PGS
  • Resolución: 1920x1080p
  • Formato: MKV
  • Codec: H.264
  • Encoder: Dracarys
  • Mediainfo: Clic para Mostrar Datos Ver
  • Format                                   : Matroska
    Format version                           : Version 4 / Version 2
    File size                                : 3.17 GiB
    Duration                                 : 1 h 32 min
    Overall bit rate                         : 4 921 kb/s
    Movie name                               : CinemaniaHDD.com
    Encoded date                             : UTC 2018-03-22 19:16:41 / UTC 2018-03-21T18:24:15Z
    Writing application                      : mkvmerge v15.0.0 ('Duel with the Devil') 64-bit
    Writing library                          : libebml v1.3.5 + libmatroska v1.4.5 / Lavf57.7.2

    Video
    ID                                       : 1
    Format                                   : AVC
    Format/Info                              : Advanced Video Codec
    Format profile                           : [email protected]
    Format settings                          : CABAC / 4 Ref Frames
    Format settings, CABAC                   : Yes
    Format settings, RefFrames               : 4 frames
    Codec ID                                 : V_MPEG4/ISO/AVC
    Duration                                 : 1 h 32 min
    Bit rate                                 : 3 735 kb/s
    Width                                    : 1 920 pixels
    Height                                   : 1 080 pixels
    Display aspect ratio                     : 16:9
    Frame rate mode                          : Constant
    Frame rate                               : 23.976 (24000/1001) FPS
    Color space                              : YUV
    Chroma subsampling                       : 4:2:0
    Bit depth                                : 8 bits
    Scan type                                : Progressive
    Bits/(Pixel*Frame)                       : 0.075
    Stream size                              : 2.40 GiB (76%)
    Title                                    : Kung Fu Panda (2008) Full 1080p Latino
    Writing library                          : x264 core 148 r2708 86b7198
    Encoding settings                        : cabac=1 / ref=4 / deblock=1:0:0 / analyse=0x3:0x133 / me=esa / subme=9 / psy=1 / psy_rd=1.00:0.00 / mixed_ref=1 / me_range=16 / chroma_me=1 / trellis=2 / 8x8dct=1 / cqm=0 / deadzone=21,11 / fast_pskip=1 / chroma_qp_offset=-2 / threads=34 / lookahead_threads=2 / sliced_threads=0 / nr=0 / decimate=1 / interlaced=0 / bluray_compat=0 / constrained_intra=0 / bframes=3 / b_pyramid=2 / b_adapt=2 / b_bias=0 / direct=3 / weightb=1 / open_gop=0 / weightp=2 / keyint=240 / keyint_min=24 / scenecut=40 / intra_refresh=0 / rc_lookahead=60 / rc=crf / mbtree=1 / crf=20.0 / qcomp=0.60 / qpmin=0 / qpmax=69 / qpstep=4 / vbv_maxrate=62500 / vbv_bufsize=78125 / crf_max=0.0 / nal_hrd=none / filler=0 / ip_ratio=1.40 / aq=1:1.00
    Language                                 : English
    Default                                  : Yes
    Forced                                   : No
    Color range                              : Limited
    Color primaries                          : BT.709
    Transfer characteristics                 : BT.709
    Matrix coefficients                      : BT.709
    Statistics Tags Issue                    : mkvmerge v15.0.0 ('Duel with the Devil') 64-bit 2018-03-22 19:16:41 / mkvmerge v15.0.0 ('Duel with the Devil') 64-bit 2018-03-22 19:16:41 / UTC 2018-03-21T18:24:15Z
    FromStats_BitRate                        : 3803547
    FromStats_Duration                       : 01:32:09.483000000
    FromStats_FrameCount                     : 132575
    FromStats_StreamSize                     : 2628956237

    Audio #1
    ID                                       : 2
    Format                                   : AC-3
    Format/Info                              : Audio Coding 3
    Format settings, Endianness              : Big
    Codec ID                                 : A_AC3
    Duration                                 : 1 h 32 min
    Bit rate mode                            : Constant
    Bit rate                                 : 448 kb/s
    Channel(s)                               : 6 channels
    Channel positions                        : Front: L C R, Side: L R, LFE
    Sampling rate                            : 48.0 kHz
    Frame rate                               : 31.250 FPS (1536 SPF)
    Bit depth                                : 16 bits
    Compression mode                         : Lossy
    Stream size                              : 295 MiB (9%)
    Language                                 : Spanish
    Service kind                             : Complete Main
    Default                                  : Yes
    Forced                                   : No
    Statistics Tags Issue                    : mkvmerge v15.0.0 ('Duel with the Devil') 64-bit 2018-03-22 19:16:41 / mkvmerge v15.0.0 ('Duel with the Devil') 64-bit 2018-03-22 19:16:41 / UTC 2018-03-21T18:24:15Z
    FromStats_BitRate                        : 448000
    FromStats_Duration                       : 01:32:08.448000000
    FromStats_FrameCount                     : 172764
    FromStats_StreamSize                     : 309593088

    Audio #2
    ID                                       : 3
    Format                                   : AC-3
    Format/Info                              : Audio Coding 3
    Format settings, Endianness              : Big
    Codec ID                                 : A_AC3
    Duration                                 : 1 h 32 min
    Bit rate mode                            : Constant
    Bit rate                                 : 640 kb/s
    Channel(s)                               : 6 channels
    Channel positions                        : Front: L C R, Side: L R, LFE
    Sampling rate                            : 48.0 kHz
    Frame rate                               : 31.250 FPS (1536 SPF)
    Bit depth                                : 16 bits
    Compression mode                         : Lossy
    Stream size                              : 422 MiB (13%)
    Language                                 : English
    Service kind                             : Complete Main
    Default                                  : No
    Forced                                   : No
    Statistics Tags Issue                    : mkvmerge v15.0.0 ('Duel with the Devil') 64-bit 2018-03-22 19:16:41 / mkvmerge v15.0.0 ('Duel with the Devil') 64-bit 2018-03-22 19:16:41 / UTC 2018-03-21T18:24:15Z
    FromStats_BitRate                        : 640000
    FromStats_Duration                       : 01:32:09.504000000
    FromStats_FrameCount                     : 172797
    FromStats_StreamSize                     : 442360320

    Text #1
    ID                                       : 4
    Format                                   : PGS
    Muxing mode                              : zlib
    Codec ID                                 : S_HDMV/PGS
    Codec ID/Info                            : Picture based subtitle format used on BDs/HD-DVDs
    Language                                 : English
    Default                                  : No
    Forced                                   : No
    Statistics Tags Issue                    : mkvmerge v15.0.0 ('Duel with the Devil') 64-bit 2018-03-22 19:16:41 / mkvmerge v15.0.0 ('Duel with the Devil') 64-bit 2018-03-22 19:16:41 / UTC 2018-03-21T18:24:15Z
    FromStats_BitRate                        : 48087
    FromStats_Duration                       : 01:31:36.163000000
    FromStats_FrameCount                     : 3204
    FromStats_StreamSize                     : 33037245

    Text #2
    ID                                       : 5
    Format                                   : PGS
    Muxing mode                              : zlib
    Codec ID                                 : S_HDMV/PGS
    Codec ID/Info                            : Picture based subtitle format used on BDs/HD-DVDs
    Language                                 : Spanish
    Default                                  : No
    Forced                                   : No
    Statistics Tags Issue                    : mkvmerge v15.0.0 ('Duel with the Devil') 64-bit 2018-03-22 19:16:41 / mkvmerge v15.0.0 ('Duel with the Devil') 64-bit 2018-03-22 19:16:41 / UTC 2018-03-21T18:24:15Z
    FromStats_BitRate                        : 36211
    FromStats_Duration                       : 01:24:16.051000000
    FromStats_FrameCount                     : 1892
    FromStats_StreamSize                     : 22886031

    Menu
    00:00:00.000                             : :Chapter 1
    00:02:31.401                             : :Chapter 2
    00:05:16.316                             : :Chapter 3
    00:07:58.895                             : :Chapter 4
    00:10:41.933                             : :Chapter 5
    00:16:39.332                             : :Chapter 6
    00:19:28.501                             : :Chapter 7
    00:22:41.652                             : :Chapter 8
    00:26:19.161                             : :Chapter 9
    00:31:13.872                             : :Chapter 10
    00:35:26.124                             : :Chapter 11
    00:38:35.605                             : :Chapter 12
    00:42:34.761                             : :Chapter 13
    00:45:45.910                             : :Chapter 14
    00:51:28.961                             : :Chapter 15
    00:56:29.052                             : :Chapter 16
    00:58:48.358                             : :Chapter 17
    01:02:06.223                             : :Chapter 18
    01:06:52.884                             : :Chapter 19
    01:09:52.939                             : :Chapter 20
    01:14:04.732                             : :Chapter 21
    01:20:04.466                             : :Chapter 22
    01:23:11.987                             : :Chapter 23

  • Peso: 3.17 GiB

Sinopsis

El protagonista es un oso panda llamado Po, el más vago de todas las criaturas del Valle de la Paz. Con poderosos enemigos acercándose, la esperanza es depositada en una antigua profecía que dice que un héroe se alzará para salvarles. Voces originales de Jack Black, Angelina Jolie, Dustin Hoffman, Lucy Liu & Jackie Chan.

Ficha técnica

Video trailer de la película

Enlaces de descarga

Rip de Bluray

Descargar Kung Fu Panda (2008) Full 1080p Latino




Aportes de DPeliculasHDmega la pass es:dpeliculashdmega.org Aportes de CinemaniaHD la pass es:cinemaniahdd.com

Películas relacionadas

  • El secreto de mi éxito (1987) REMUX 1080p Latino

    1987
    El secreto de mi éxito (1987) REMUX 1080p Latino

    0.0 1h 40m 1987

    Brantley Foster, un educado chico de Arkansas que acaba de licenciarse, ha soñado siempre con triunfar...

    Director: Herbert Ross

    Género: Comedia

    Actores: Richard Jordan

  • Samantha! (2019) Temporada 1 y 2 NF 1080p Latino

    2018
    Samantha! (2019) Temporada 1 y 2 NF 1080p Latino

    0.0 0h 28m 2018

    Samantha, una estrella infantil en la década de los 80, se aferra a los límites de la celebridad con...

    Director: Felipe Braga

    Género: Comedia

    Actores: Sidney Alexandre

  • Someone Great (2019) NF 1080p Latino

    2019
    Someone Great (2019) NF 1080p Latino

    0.0 1h 32m 2019

    Para Makani Young, mudarse a Nebraska desde Hawaii, resultó todo un choque cultural. Todavía adaptándose...

    Director: Jennifer Kaytin Robinson

    Género: Comedia

    Actores: Thomas Kopache

Comentarios 0