×

¿Problemas para descargar con Mozilla, EDGE? Deshabilita la opción "Abrir vinculos en una pestaña nueva" tal como lo muestra ésta imagen.

Käpt’n Sharky (2018) WEB-DL 1080p Latino

703 vistas

Información de Käpt’n Sharky (2018) WEB-DL 1080p Latino

kaptn sharky 55089 poster

Datos de la película

  • Calidad:
  • Audio: Español Latino AC3 2.0 DVD - Ingles AC3 5.1 iTunes
  • Subtitulos: No
  • Resolución: 1912x1032
  • Formato: MKV
  • Codec: H.264
  • Encoder: EVO
  • Mediainfo: Clic para Mostrar Datos Ver
  • Captn Sharky (2018) WEB-DL 1080p Latino.mkv
    Format                      : Matroska
    Format version              : Version 4
    File size                   : 3.11 GiB
    Duration                    : 1 h 16 min
    Overall bit rate            : 5 781 kb/s
    Movie name                  : Captn Sharky (2018) WEB-DL 1080p Latino
    Encoded date                : UTC 2019-07-16 21:11:42
    Writing application         : mkvmerge v35.0.0 ('All The Love In The World') 64-bit
    Writing library             : libebml v1.3.9 + libmatroska v1.5.2

    Video
    ID                          : 1
    Format                      : AVC
    Format/Info                 : Advanced Video Codec
    Format profile              : High@L4
    Format settings             : CABAC / 4 Ref Frames
    Format settings, CABAC      : Yes
    Format settings, ReFrames   : 4 frames
    Codec ID                    : V_MPEG4/ISO/AVC
    Duration                    : 1 h 16 min
    Bit rate                    : 5 139 kb/s
    Width                       : 1 912 pixels
    Height                      : 1 032 pixels
    Display aspect ratio        : 1.85:1
    Frame rate mode             : Constant
    Frame rate                  : 24.000 FPS
    Color space                 : YUV
    Chroma subsampling          : 4:2:0
    Bit depth                   : 8 bits
    Scan type                   : Progressive
    Bits/(Pixel*Frame)          : 0.109
    Stream size                 : 2.76 GiB (89%)
    Title                       : CinemaniaHDD.Net
    Language                    : English
    Default                     : Yes
    Forced                      : No
    Color range                 : Limited
    Color primaries             : BT.709
    Transfer characteristics    : BT.709
    Matrix coefficients         : BT.709

    Audio #1
    ID                          : 2
    Format                      : AC-3
    Format/Info                 : Audio Coding 3
    Commercial name             : Dolby Digital
    Codec ID                    : A_AC3
    Duration                    : 1 h 16 min
    Bit rate mode               : Constant
    Bit rate                    : 256 kb/s
    Channel(s)                  : 2 channels
    Channel layout              : L R
    Sampling rate               : 48.0 kHz
    Frame rate                  : 31.250 FPS (1536 SPF)
    Bit depth                   : 16 bits
    Compression mode            : Lossy
    Delay relative to video     : -42 ms
    Stream size                 : 141 MiB (4%)
    Title                       : Español latino [CinemaniaHDD]
    Language                    : Spanish
    Service kind                : Complete Main
    Default                     : Yes
    Forced                      : No

    Audio #2
    ID                          : 3
    Format                      : AC-3
    Format/Info                 : Audio Coding 3
    Commercial name             : Dolby Digital
    Codec ID                    : A_AC3
    Duration                    : 1 h 16 min
    Bit rate mode               : Constant
    Bit rate                    : 384 kb/s
    Channel(s)                  : 6 channels
    Channel layout              : L R C LFE Ls Rs
    Sampling rate               : 48.0 kHz
    Frame rate                  : 31.250 FPS (1536 SPF)
    Bit depth                   : 16 bits
    Compression mode            : Lossy
    Delay relative to video     : -42 ms
    Stream size                 : 211 MiB (7%)
    Title                       : Inglés [CinemaniaHDD]
    Language                    : English
    Service kind                : Complete Main
    Default                     : No
    Forced                      : No

     

  • Peso: 3.11 GiB

Sinopsis

Sin miedo y lleno de risas. El Capitán Sharky y su animada tripulación tienen aventuras emocionantes y aterradoras en las que aprenden que hay más que ser el pirata más temible: ser un buen amigo.

Ficha técnica

Video trailer de la película

Enlaces de descarga

Rip de Bluray

Descargar Käpt’n Sharky (2018) WEB-DL 1080p Latino




Aportes de DPeliculasHDmega la pass es:dpeliculashdmega.org Aportes de CinemaniaHD la pass es:cinemaniahdd.com
Guardado en : Animación , Familia

Películas relacionadas

  • Un mundo extraño (2022) HD 1080p Latino

    Un mundo extraño (2022) HD 1080p Latino

    2022
    Un mundo extraño (2022) HD 1080p Latino

    1h 42m 2022

    Descargar Un mundo extraño (2022) HD 1080p Latino. Los Clades son una familia conocida en todo el mundo,...

    Director: Thai Bettistea

    Género: Animación

    Actores: Reed Buck

  • Un mundo extraño (2022) REMUX 1080p Latino

    Un mundo extraño (2022) REMUX 1080p Latino

    2022
    Un mundo extraño (2022) REMUX 1080p Latino

    1h 42m 2022

    Descargar Un mundo extraño (2022) REMUX 1080p. Un viaje a una tierra inexplorada y traicionera en la...

    Director: Thai Bettistea

    Género: Animación

    Actores: Reed Buck

  • Espiritu Libre (2023) NF WEB-DL 1080p Latino

    Espiritu Libre (2023) NF WEB-DL 1080p Latino

    2023
    Espiritu Libre (2023) NF WEB-DL 1080p Latino

    1h 49m 2023

    Descargar Espiritu Libre (2023) NF WEB-DL 1080p Latino. La película se basa en la increíble historia...

    Director: Sarah Spillane

    Género: Aventura

    Actores: Vivien Turner

descargar Käpt’n Sharky (2018) WEB-DL 1080p Latino 1080p gratis, Käpt’n Sharky (2018) WEB-DL 1080p Latino mega 1 link, Käpt’n Sharky (2018) WEB-DL 1080p Latino pelicula completa, descargar Käpt’n Sharky (2018) WEB-DL 1080p Latino gratis en mega.

Käpt’n Sharky (2018) WEB-DL 1080p Latino pelicula full hd, Käpt’n Sharky (2018) WEB-DL 1080p Latino mega latino, Käpt’n Sharky (2018) WEB-DL 1080p Latino 4k latino, Käpt’n Sharky (2018) WEB-DL 1080p Latino pelicula completa, Käpt’n Sharky (2018) WEB-DL 1080p Latino descargar gratis, descargar Käpt’n Sharky (2018) WEB-DL 1080p Latino pelicula latino, Käpt’n Sharky (2018) WEB-DL 1080p Latino 1 link mega, Käpt’n Sharky (2018) WEB-DL 1080p Latino 1 link google drive, Käpt’n Sharky (2018) WEB-DL 1080p Latino hd 1080p latino.
Comentarios 0