×

¿Problemas para descargar con Mozilla, EDGE? Deshabilita la opción "Abrir vinculos en una pestaña nueva" tal como lo muestra ésta imagen.

Jurassic World: El Reino Caído (2018) REMUX 4K UHD HDR Latino

441 vistas

Información de Jurassic World: El Reino Caído (2018) REMUX 4K UHD HDR Latino

Datos de la película

  • Calidad: 4K HDR
  • Audio: Se especifica abajo de la Sinopsis
  • Subtitulos: Español Latino PGS - Ingles PGS
  • Resolución: 3840x2160p
  • Formato: MKV
  • Codec: HEVC
  • Encoder: CinefiloCool
  • Mediainfo: Clic para Mostrar Datos Ver
  • Jurassic World El Reino Caido (2018) REMUX UHD HDR Latino-CMHDD.mkv
    Format                      : Matroska
    Format version              : Version 4
    File size                   : 46.7 GiB
    Duration                    : 2 h 8 min
    Overall bit rate mode       : Variable
    Overall bit rate            : 52.1 Mb/s
    Movie name                  : Jurassic World: / Fallen Kingdom (2018) CinemaniaHDD.Net
    Encoded date                : UTC 2022-07-18 03:04:24
    Writing application         : mkvmerge v56.1.0 ('My Friend') 64-bit
    Writing library             : libebml v1.4.2 + libmatroska v1.6.4
    Attachments                 : CINEMANIAHD.png

    Video
    ID                          : 1
    Format                      : HEVC
    Format/Info                 : High Efficiency Video Coding
    Format profile              : Main 10@L5.1@High
    HDR format                  : SMPTE ST 2086, HDR10 compatible
    Codec ID                    : V_MPEGH/ISO/HEVC
    Duration                    : 2 h 8 min
    Bit rate                    : 44.3 Mb/s
    Width                       : 3 840 pixels
    Height                      : 2 160 pixels
    Display aspect ratio        : 16:9
    Frame rate mode             : Constant
    Frame rate                  : 23.976 (24000/1001) FPS
    Color space                 : YUV
    Chroma subsampling          : 4:2:0 (Type 2)
    Bit depth                   : 10 bits
    Bits/(Pixel*Frame)          : 0.223
    Stream size                 : 39.7 GiB (85%)
    Title                       : REMUX 2160p HDR [Bluray]
    Default                     : Yes
    Forced                      : Yes
    Color range                 : Limited
    Color primaries             : BT.2020
    Transfer characteristics    : PQ
    Matrix coefficients         : BT.2020 non-constant
    Mastering display color pri : Display P3
    Mastering display luminance : min: 0.0001 cd/m2, max: 1000 cd/m2
    Maximum Content Light Level : 1000 cd/m2
    Maximum Frame-Average Light : 153 cd/m2

    Audio #1
    ID                          : 2
    Format                      : DTS
    Format/Info                 : Digital Theater Systems
    Codec ID                    : A_DTS
    Duration                    : 2 h 8 min
    Bit rate mode               : Constant
    Bit rate                    : 1 509 kb/s
    Channel(s)                  : 6 channels
    Channel layout              : C L R Ls Rs LFE
    Sampling rate               : 48.0 kHz
    Frame rate                  : 93.750 FPS (512 SPF)
    Bit depth                   : 24 bits
    Compression mode            : Lossy
    Stream size                 : 1.35 GiB (3%)
    Title                       : Español Latino DTS [CinemaniaHDD]
    Language                    : Spanish
    Default                     : Yes
    Forced                      : Yes

    Audio #2
    ID                          : 3
    ID in the original source m : 4353 (0x1101)
    Format                      : DTS XBR
    Format/Info                 : Digital Theater Systems
    Commercial name             : DTS-HD High Resolution Audio
    Codec ID                    : A_DTS
    Duration                    : 2 h 8 min
    Bit rate mode               : Constant
    Bit rate                    : 2 046 kb/s
    Channel(s)                  : 8 channels
    Channel layout              : C L R LFE Lb Rb Lss Rss
    Sampling rate               : 48.0 kHz
    Frame rate                  : 93.750 FPS (512 SPF)
    Bit depth                   : 24 bits
    Compression mode            : Lossy
    Stream size                 : 1.83 GiB (4%)
    Title                       : Español Latino DTS-HD [CinemaniaHDD]
    Language                    : Spanish
    Default                     : No
    Forced                      : No
    Original source medium      : Blu-ray

    Audio #3
    ID                          : 4
    Format                      : DTS XLL X
    Format/Info                 : Digital Theater Systems
    Commercial name             : DTS-HD Master Audio
    Codec ID                    : A_DTS
    Duration                    : 2 h 8 min
    Bit rate mode               : Variable
    Bit rate                    : 4 231 kb/s
    Channel(s)                  : 8 channels
    Channel(s)_Original         : Object Based
    ChannelLayout_Original      : Object Based
    Sampling rate               : 48.0 kHz
    Frame rate                  : 93.750 FPS (512 SPF)
    Bit depth                   : 24 bits
    Stream size                 : 3.79 GiB (8%)
    Title                       : Ingles [CinemaniaHDD]
    Language                    : English
    Default                     : No
    Forced                      : No

    Text #1
    ID                          : 5
    ID in the original source m : 4611 (0x1203)
    Format                      : PGS
    Muxing mode                 : zlib
    Codec ID                    : S_HDMV/PGS
    Codec ID/Info               : Picture based subtitle format used on BDs/HD-DVDs
    Duration                    : 2 h 6 min
    Bit rate                    : 195 b/s
    Count of elements           : 20
    Stream size                 : 181 KiB (0%)
    Title                       : Sub_Forzados [PGS]
    Language                    : Spanish
    Default                     : No
    Forced                      : No
    Original source medium      : Blu-ray

    Text #2
    ID                          : 6
    ID in the original source m : 4609 (0x1201)
    Format                      : PGS
    Muxing mode                 : zlib
    Codec ID                    : S_HDMV/PGS
    Codec ID/Info               : Picture based subtitle format used on BDs/HD-DVDs
    Duration                    : 2 h 6 min
    Bit rate                    : 25.1 kb/s
    Count of elements           : 2590
    Stream size                 : 22.7 MiB (0%)
    Title                       : Sub_Esp [PGS]
    Language                    : Spanish
    Default                     : No
    Forced                      : No
    Original source medium      : Blu-ray

    Text #3
    ID                          : 7
    ID in the original source m : 4608 (0x1200)
    Format                      : PGS
    Muxing mode                 : zlib
    Codec ID                    : S_HDMV/PGS
    Codec ID/Info               : Picture based subtitle format used on BDs/HD-DVDs
    Duration                    : 2 h 7 min
    Bit rate                    : 35.3 kb/s
    Count of elements           : 3541
    Stream size                 : 32.1 MiB (0%)
    Title                       : Sub_Eng [PGS]
    Language                    : English
    Default                     : No
    Forced                      : No
    Original source medium      : Blu-ray

    Text #4
    ID                          : 8
    Format                      : UTF-8
    Codec ID                    : S_TEXT/UTF8
    Codec ID/Info               : UTF-8 Plain Text
    Duration                    : 1 h 18 min
    Bit rate                    : 0 b/s
    Count of elements           : 10
    Stream size                 : 251 Bytes (0%)
    Title                       : Sub_Forzados
    Language                    : Spanish
    Default                     : Yes
    Forced                      : Yes

    Text #5
    ID                          : 9
    Format                      : UTF-8
    Codec ID                    : S_TEXT/UTF8
    Codec ID/Info               : UTF-8 Plain Text
    Duration                    : 1 h 56 min
    Bit rate                    : 43 b/s
    Count of elements           : 1294
    Stream size                 : 37.5 KiB (0%)
    Title                       : Sub_Esp
    Language                    : Spanish
    Default                     : No
    Forced                      : No

    Menu
    00:00:00.000                : Chapter 01
    00:07:13.224                : Chapter 02
    00:12:01.554                : Chapter 03
    00:17:17.745                : Chapter 04
    00:21:17.192                : Chapter 05
    00:28:49.811                : Chapter 06
    00:35:04.685                : Chapter 07
    00:40:51.574                : Chapter 08
    00:46:32.498                : Chapter 09
    00:52:04.996                : Chapter 10
    01:00:59.197                : Chapter 11
    01:06:50.256                : Chapter 12
    01:11:07.638                : Chapter 13
    01:17:21.094                : Chapter 14
    01:26:55.210                : Chapter 15
    01:33:01.492                : Chapter 16
    01:42:55.878                : Chapter 17
    01:50:01.553                : Chapter 18
    01:54:56.222                : Chapter 19
    01:58:37.985                : Chapter 20

  • Peso: 46.7 GiB

Sinopsis

Descargar Jurassic World: El Reino Caído (2018) REMUX 4K UHD HDR Latino. Una erupción volcánica amenaza a los dinosaurios restantes en la Isla Nublar, donde las criaturas han vagado libremente durante años tras de la desaparición del parque temático «Jurassic World». Claire Dearing, ex gerente del parque, ahora fundó el Grupo de Protección de Dinosaurios, una organización dedicada a intentar preservarlos. Cuando a Claire le ofrecen la oportunidad de rescatar algunos ejemplares de la isla, acude a Owen Grady, el ex entrenador de dinosaurios que trabajó en el parque, para que la ayude a evitar la extinción de los dinosaurios… Secuela de «Jurassic World».

Audio Español Latino DTS-HD 7.1 + DTS 5.1 Bluray – Ingles DTS-HD 7.1 Bluray
Disponible Solo Para VIP!!!

Ficha técnica

Video trailer de la película

Enlaces de descarga

Rip de Bluray

Descargar Jurassic World: El Reino Caído (2018) REMUX 4K UHD HDR Latino


Aportes de DPeliculasHDmega la pass es:dpeliculashdmega.org Aportes de CinemaniaHD la pass es:cinemaniahdd.com

Películas relacionadas

Jurassic World: El Reino Caído (2018) REMUX 4K UHD HDR Latino pelicula full hd, Jurassic World: El Reino Caído (2018) REMUX 4K UHD HDR Latino mega latino, Jurassic World: El Reino Caído (2018) REMUX 4K UHD HDR Latino 4k latino, Jurassic World: El Reino Caído (2018) REMUX 4K UHD HDR Latino pelicula completa, Jurassic World: El Reino Caído (2018) REMUX 4K UHD HDR Latino descargar gratis, descargar Jurassic World: El Reino Caído (2018) REMUX 4K UHD HDR Latino pelicula latino, Jurassic World: El Reino Caído (2018) REMUX 4K UHD HDR Latino 1 link mega, Jurassic World: El Reino Caído (2018) REMUX 4K UHD HDR Latino 1 link google drive, Jurassic World: El Reino Caído (2018) REMUX 4K UHD HDR Latino hd 1080p latino.
Comentarios 0