×

¿Problemas para descargar con Mozilla, EDGE? Deshabilita la opción "Abrir vinculos en una pestaña nueva" tal como lo muestra ésta imagen.

La noche del demonio: La puerta roja (2023) AMZN WEB-DL 1080p Latino

230 vistas

Información de La noche del demonio: La puerta roja (2023) AMZN WEB-DL 1080p Latino

Datos de la película

  • Calidad: WEBDL
  • Audio: Español Latino AC3 5.1 WEB-DL - Ingles AC3 5.1 WEB-DL
  • Subtitulos: Español Latino SRT- FORZADOS SRT
  • Resolución: 1920x800p
  • Formato: MKV
  • Codec: H.264
  • Encoder: Melkor
  • Mediainfo: Clic para Mostrar Datos Ver
  • La noche del demonio La puerta roja (2023) AMZN WebDL 1080p Latino.mkv
    Format                      : Matroska
    Format version              : Version 4
    File size                   : 5.65 GiB
    Duration                    : 1 h 47 min
    Overall bit rate            : 7 548 kb/s
    Movie name                  : Insidious The Red Door (2023) CinemaniaHDD.Net
    Encoded date                : UTC 2023-08-01 07:27:06
    Writing application         : mkvmerge v56.1.0 ('My Friend') 64-bit
    Writing library             : libebml v1.4.2 + libmatroska v1.6.4
    Attachments                 : CINEMANIAHD.png
    Site                        : CinemaniaHDD.Net
    Uploader                    : Melkor

    Video
    ID                          : 1
    Format                      : AVC
    Format/Info                 : Advanced Video Codec
    Format profile              : High@L4
    Format settings             : CABAC / 4 Ref Frames
    Format settings, CABAC      : Yes
    Format settings, Reference  : 4 frames
    Codec ID                    : V_MPEG4/ISO/AVC
    Duration                    : 1 h 47 min
    Bit rate mode               : Constant
    Bit rate                    : 6 394 kb/s
    Nominal bit rate            : 10 000 kb/s
    Width                       : 1 920 pixels
    Height                      : 800 pixels
    Display aspect ratio        : 2.40:1
    Frame rate mode             : Constant
    Frame rate                  : 23.976 (24000/1001) FPS
    Color space                 : YUV
    Chroma subsampling          : 4:2:0
    Bit depth                   : 8 bits
    Scan type                   : Progressive
    Bits/(Pixel*Frame)          : 0.174
    Stream size                 : 4.78 GiB (85%)
    Title                       : Web HD1080p [CinemaniaHDD]
    Language                    : English
    Default                     : Yes
    Forced                      : Yes
    Color range                 : Limited
    Color primaries             : BT.709
    Transfer characteristics    : BT.709
    Matrix coefficients         : BT.709

    Audio #1
    ID                          : 2
    Format                      : AC-3
    Format/Info                 : Audio Coding 3
    Commercial name             : Dolby Digital
    Codec ID                    : A_AC3
    Duration                    : 1 h 47 min
    Bit rate mode               : Constant
    Bit rate                    : 384 kb/s
    Channel(s)                  : 6 channels
    Channel layout              : L R C LFE Ls Rs
    Sampling rate               : 48.0 kHz
    Frame rate                  : 31.250 FPS (1536 SPF)
    Compression mode            : Lossy
    Stream size                 : 294 MiB (5%)
    Title                       : Español Latino [CinemaniaHDD]
    Language                    : Spanish
    Service kind                : Complete Main
    Default                     : Yes
    Forced                      : Yes

    Audio #2
    ID                          : 3
    Format                      : E-AC-3 JOC
    Format/Info                 : Enhanced AC-3 with Joint Object Coding
    Commercial name             : Dolby Digital Plus with Dolby Atmos
    Codec ID                    : A_EAC3
    Duration                    : 1 h 47 min
    Bit rate mode               : Constant
    Bit rate                    : 768 kb/s
    Channel(s)                  : 6 channels
    Channel layout              : L R C LFE Ls Rs
    Sampling rate               : 48.0 kHz
    Frame rate                  : 31.250 FPS (1536 SPF)
    Compression mode            : Lossy
    Stream size                 : 588 MiB (10%)
    Title                       : Ingles [CinemaniaHDD]
    Language                    : English
    Service kind                : Complete Main
    Default                     : No
    Forced                      : No
    Complexity index            : 16
    Number of dynamic objects   : 15
    Bed channel count           : 1 channel
    Bed channel configuration   : LFE

    Text #1
    ID                          : 4
    Format                      : UTF-8
    Codec ID                    : S_TEXT/UTF8
    Codec ID/Info               : UTF-8 Plain Text
    Duration                    : 1 h 44 min
    Bit rate                    : 0 b/s
    Count of elements           : 22
    Stream size                 : 736 Bytes (0%)
    Title                       : Forzados-SRT [CinemaniaHDD]
    Language                    : Spanish
    Default                     : Yes
    Forced                      : Yes

    Text #2
    ID                          : 5
    Format                      : UTF-8
    Codec ID                    : S_TEXT/UTF8
    Codec ID/Info               : UTF-8 Plain Text
    Duration                    : 1 h 45 min
    Bit rate                    : 32 b/s
    Count of elements           : 972
    Stream size                 : 25.0 KiB (0%)
    Title                       : Español-SRT [CinemaniaHDD]
    Language                    : Spanish
    Default                     : No
    Forced                      : No

    Text #3
    ID                          : 6
    Format                      : UTF-8
    Codec ID                    : S_TEXT/UTF8
    Codec ID/Info               : UTF-8 Plain Text
    Duration                    : 1 h 45 min
    Bit rate                    : 38 b/s
    Count of elements           : 1019
    Stream size                 : 29.7 KiB (0%)
    Title                       : Ingles-SRT [CinemaniaHDD]
    Language                    : English
    Default                     : No
    Forced                      : No

    Menu
    00:00:00.020                : Chapter 01
    00:06:44.007                : Chapter 02
    00:13:20.862                : Chapter 03
    00:19:11.463                : Chapter 04
    00:26:15.345                : Chapter 05
    00:32:43.358                : Chapter 06
    00:38:40.632                : Chapter 07
    00:46:23.303                : Chapter 08
    00:52:39.804                : Chapter 09
    01:00:18.388                : Chapter 10
    01:06:00.814                : Chapter 11
    01:11:49.788                : Chapter 12
    01:17:54.986                : Chapter 13
    01:25:17.178                : Chapter 14
    01:32:22.687                : Chapter 15
    01:41:42.831                : Chapter 16

  • Peso: 5.65 GiB

Sinopsis

Descargar La noche del demonio: La puerta roja (2023) AMZN WEB-DL 1080p Latino. Para enterrar sus demonios de una vez por todas, Josh Lambert y un ya universitario Dalton Lambert, deberán profundizar en El Mas Allá (The Further) más que nunca, enfrentándose al oscuro pasado familiar y a un huésped de nuevos horrores terroríficos que acechan tras la puerta roja.

Ficha técnica

Video trailer de la película

Enlaces de descarga

Rip de Bluray

Descargar La noche del demonio: La puerta roja (2023) AMZN WEB-DL 1080p Latino




Aportes de DPeliculasHDmega la pass es:dpeliculashdmega.org Aportes de CinemaniaHD la pass es:cinemaniahdd.com Aportes recientes:cinemaniahdd.net
Guardado en : Misterio , Suspenso , Terror

Películas relacionadas

  • Red de venganza (2023) HD 1080p Latino

    Red de venganza (2023) HD 1080p Latino

    2023
    Red de venganza (2023) HD 1080p Latino

    1h 25m 2023

    Descargar Red de venganza (2023) HD 1080p Latino. Analiza los problemas que surgen entre una madre (Summer...

    Director: Amy Redford

    Género: Drama

    Actores: Summer Phoenix

  • Red de venganza (2023) REMUX 1080p Latino

    Red de venganza (2023) REMUX 1080p Latino

    2023
    Red de venganza (2023) REMUX 1080p Latino

    1h 25m 2023

    Descargar Red de venganza (2023) REMUX 1080p Latino. Analiza los problemas que surgen entre una madre...

    Director: Amy Redford

    Género: Drama

    Actores: Summer Phoenix

  • Recuerdos Mortales (2024) WEB-DL 1080p Latino

    Recuerdos Mortales (2024) WEB-DL 1080p Latino

    2024
    Recuerdos Mortales (2024) WEB-DL 1080p Latino

    1h 52m 2024

    Descargar Recuerdos Mortales (2024) WEB-DL 1080p Latino. Después de someterse a un tratamiento de vanguardia...

    Director: Adam Cooper

    Género: Crimen

    Actores: Tommy Flanagan

  • La primera profecía (2024) WEB-DL 1080p Latino

    La primera profecía (2024) WEB-DL 1080p Latino

    2024
    La primera profecía (2024) WEB-DL 1080p Latino

    1h 59m 2024

    Descargar La primera profecía (2024) WEB-DL 1080p Latino. Cuando una joven estadounidense es enviada...

    Director: Timothy Visentin

    Género: Terror

    Actores: Tawfeek Barhom

descargar La noche del demonio: La puerta roja (2023) AMZN WEB-DL 1080p Latino WEBDL 1080p gratis, La noche del demonio: La puerta roja (2023) AMZN WEB-DL 1080p Latino WEBDL mega 1 link, La noche del demonio: La puerta roja (2023) AMZN WEB-DL 1080p Latino WEBDL pelicula completa, descargar La noche del demonio: La puerta roja (2023) AMZN WEB-DL 1080p Latino WEBDL gratis en mega.

La noche del demonio: La puerta roja (2023) AMZN WEB-DL 1080p Latino pelicula full hd, La noche del demonio: La puerta roja (2023) AMZN WEB-DL 1080p Latino mega latino, La noche del demonio: La puerta roja (2023) AMZN WEB-DL 1080p Latino 4k latino, La noche del demonio: La puerta roja (2023) AMZN WEB-DL 1080p Latino pelicula completa, La noche del demonio: La puerta roja (2023) AMZN WEB-DL 1080p Latino descargar gratis, descargar La noche del demonio: La puerta roja (2023) AMZN WEB-DL 1080p Latino pelicula latino, La noche del demonio: La puerta roja (2023) AMZN WEB-DL 1080p Latino 1 link mega, La noche del demonio: La puerta roja (2023) AMZN WEB-DL 1080p Latino 1 link google drive, La noche del demonio: La puerta roja (2023) AMZN WEB-DL 1080p Latino hd 1080p latino.
Comentarios 0